<?xml version="1.0" standalone="no"?>
<!DOCTYPE svg PUBLIC "-//W3C//DTD SVG 1.1//EN" "http://www.w3.org/Graphics/SVG/1.1/DTD/svg11.dtd" >
<svg>
<metadata>
Created by FontForge 20090914 at Sun Jun 30 23:19:20 2013
 By www-data
Typeface &#194;&#169; (your company). 2006. All Rights Reserved
</metadata>
<defs>
<font id="Monika" horiz-adv-x="501" >
  <font-face 
    font-family="Monika"
    font-weight="400"
    font-stretch="normal"
    units-per-em="2048"
    panose-1="2 0 0 0 0 0 0 0 0 0"
    ascent="1638"
    descent="-410"
    x-height="1034"
    cap-height="1475"
    bbox="-108 -418.999 3152 1878"
    underline-thickness="150"
    underline-position="-142"
    unicode-range="U+0020-U+F002"
  />
<missing-glyph horiz-adv-x="1536" 
d="M256 0v1280h1024v-1280h-1024zM288 32h960v1216h-960v-1216z" />
    <glyph glyph-name=".notdef" horiz-adv-x="1536" 
d="M256 0v1280h1024v-1280h-1024zM288 32h960v1216h-960v-1216z" />
    <glyph glyph-name="space" unicode=" " horiz-adv-x="569" 
 />
    <glyph glyph-name="space" unicode="&#xa0;" horiz-adv-x="569" 
 />
    <glyph glyph-name="exclam" unicode="!" horiz-adv-x="303" 
d="M100 1432c33.333 0 50 -33.333 50 -100l-35 -1081h-30l-35 1081c0 66.667 16.667 100 50 100zM106 88l50 -37.999v-37c0 -12.667 -16.667 -25.334 -50 -38.001c-42 11.333 -63 24 -63 38v37c0 19.333 21 32 63 38z" />
    <glyph glyph-name="quotedbl" unicode="&#x22;" horiz-adv-x="600" 
d="M240 1469c8.66699 6 17.667 9 27 9c12.667 0 22.667 -4.66699 30 -14c3.33301 -5.33301 5 -11 5 -17c0 -8 -4 -17.333 -12 -28l-154 -218h-38zM430 1469c8.66699 6 17.667 9 27 9c12.667 0 22.667 -4.66699 30 -14c3.33301 -5.33301 5 -11 5 -17c0 -8 -4 -17.333 -12 -28
l-154 -218h-38z" />
    <glyph glyph-name="numbersign" unicode="#" horiz-adv-x="1163" 
 />
    <glyph glyph-name="dollar" unicode="$" horiz-adv-x="402" 
d="M254 1462l24.999 -0.00195312l25 -25c-126 -40 -192.333 -129.667 -199 -269v-50c0 -75.333 54.667 -230.333 164 -465c24.667 -75.333 37 -150.666 37 -225.999c-52 -284.667 -119 -427 -201 -427h-12l-25 25c83.333 152.667 125 274 125 364v88
c0 68.667 -27.167 169.334 -81.5 302.001s-81.5 219 -81.5 259v67c6.66699 154.667 81.334 273.667 224.001 357z" />
    <glyph glyph-name="percent" unicode="%" horiz-adv-x="1123" 
d="M505 1090c0 -59.333 -7.33594 -113 -22.0029 -161s-33.667 -89 -57 -123s-49.5 -59.833 -78.5 -77.5s-58.833 -26.5 -89.5 -26.5c-38 0 -69.333 15.333 -94 46c-50 64.667 -75 162 -75 292c0 59.333 6.83301 111.833 20.5 157.5s31.334 83.5 53.001 113.5
s44.834 52.333 69.501 67s48.334 22 71.001 22c20.667 0 43 -7.5 67 -22.5s46 -36.333 66 -64s36.5 -60.667 49.5 -99s19.5 -79.833 19.5 -124.5zM1036 1463c-156.667 -256 -304.332 -513.33 -442.999 -771.997s-255.667 -510.334 -351 -755.001l-20 -2
c-9.33301 2.66699 -17.333 8.66699 -24 18s-11.334 22 -14.001 38c284 617.333 561.333 1123.67 832 1519v-14c11.333 -6.66699 18 -17.334 20 -32.001zM1074 391.003c0 -122.667 -22.667 -216.001 -68 -280.001s-97.333 -96 -156 -96c-52.667 0 -98.167 29.5 -136.5 88.5
s-57.5 142.5 -57.5 250.5c0 60.667 6.66699 114.334 20 161.001s30.5 86 51.5 118s44.333 55.833 70 71.5s51.834 23.5 78.501 23.5c49.333 0 94.666 -28.667 135.999 -86s62 -141 62 -251zM444.999 1077c0 99.333 -36.998 183.001 -110.998 251.001
c-12 5.33301 -23.667 8 -35 8c-38.667 0 -73.834 -28 -105.501 -84s-47.5 -123.667 -47.5 -203c0 -44.667 4.66699 -84.5 14 -119.5s25 -70.833 47 -107.5c19.333 -36.667 46.666 -55 81.999 -55h20c47.333 47.333 81.833 97.666 103.5 150.999s32.5 106.333 32.5 159z
M1013 362.003c0 158.667 -34 255.333 -102 290h-18c-53.333 0 -96.166 -26.167 -128.499 -78.5s-48.5 -122.833 -48.5 -211.5c0 -62 5.83301 -115.667 17.5 -161s40.5 -87 86.5 -125c41.333 -2.66699 82.666 5 123.999 23c46 87.333 69 175 69 263z" />
    <glyph glyph-name="ampersand" unicode="&#x26;" horiz-adv-x="916" 
d="M835.5 1106c-47 -69.333 -131.834 -153.337 -254.501 -252.004c96.667 -68.667 160 -133.167 190 -193.5s45 -133.833 45 -220.5c0 -62 -9.66699 -119.333 -29 -172s-46 -97.834 -80 -135.501s-74.167 -67.334 -120.5 -89.001s-97.166 -32.5 -152.499 -32.5
c-60.667 0 -115.667 11.667 -165 35s-91.666 57.166 -126.999 101.499s-62.833 98 -82.5 161s-29.5 134.167 -29.5 213.5c0 233.333 115.667 430.333 347 591c-122 62 -183 138.667 -183 230c0 82 24 146.5 72 193.5s114.333 70.5 199 70.5c31.333 0 60 -5.66699 86 -17
c4.66699 -6 7 -15.667 7 -29c0 -7.33301 -1 -13 -3 -17c-9.33301 6 -30.666 9 -63.999 9c-62.667 0 -112.834 -19.167 -150.501 -57.5s-56.5 -91.166 -56.5 -158.499c0 -61.333 39 -132.666 117 -213.999c54 0 81 -1 81 -3l25 -4
c-110.667 -19.333 -201.5 -81.166 -272.5 -185.499s-106.5 -234.833 -106.5 -391.5c0 -143.333 27.333 -255.833 82 -337.5s131.334 -122.5 230.001 -122.5c81.333 0 149.666 34 204.999 102s83 153.667 83 257c0 86.667 -16.5 156.834 -49.5 210.501
s-92.5 95.5 -178.5 125.5c-66.667 -52.667 -100 -121 -100 -205c0 -29.333 1.66699 -49.666 5 -60.999c-6 -3.33301 -14.667 -6 -26 -8c-6.66699 -1.33301 -10.834 -3 -12.501 -5s-3.5 -6.33301 -5.5 -13c-8 18 -14.333 35 -19 51s-7 33 -7 51
c0 37.333 6.5 70.166 19.5 98.499s31 55.333 54 81s50.167 50.834 81.5 75.501l99 81c72.667 62.667 128 124.834 166 186.501s57 132.5 57 212.5c0 6.66699 5.16699 11.834 15.5 15.501s27.5 5.5 51.5 5.5c12.667 0 27.667 -4.33301 45 -13
c-12 -78 -41.5 -151.667 -88.5 -221z" />
    <glyph glyph-name="quotesingle" unicode="'" horiz-adv-x="241" 
d="M143 968h-45v503h45v-503z" />
    <glyph glyph-name="parenleft" unicode="(" horiz-adv-x="513" 
d="M430 1627c-62.667 -78.667 -114.668 -199.669 -156.001 -363.002s-62 -356.666 -62 -579.999c0 -231.333 14.333 -432.666 43 -603.999s73.334 -309.666 134.001 -414.999c-2.66699 -6.66699 -11.5 -14.5 -26.5 -23.5s-31.833 -14.5 -50.5 -16.5
c-65.333 86.667 -115.333 212.5 -150 377.5s-52 364.833 -52 599.5c0 280.667 25.833 511.667 77.5 693s113.167 303.666 184.5 366.999c15.333 -2 28.5 -7 39.5 -15s17.167 -14.667 18.5 -20z" />
    <glyph glyph-name="parenright" unicode=")" 
d="M370 682c0 -280 -26 -510.331 -78 -690.998s-113.667 -303 -185 -367c-34.667 2.66699 -54 14.334 -58 35.001c61.333 79.333 113.333 200.166 156 362.499s64 355.166 64 578.499c0 230 -14.167 431.5 -42.5 604.5s-72.833 311.833 -133.5 416.5
c3.33301 8 12.5 16.333 27.5 25s31.5 14 49.5 16c65.333 -87.333 115 -213.833 149 -379.5s51 -365.834 51 -600.501z" />
    <glyph glyph-name="asterisk" unicode="*" horiz-adv-x="633" 
d="M540 1215l-3.00098 1.99902c-29.333 10.667 -58 22.334 -86 35.001l-131 61c-3.33301 -64.667 -6.66602 -112.5 -9.99902 -143.5s-6.33301 -55.5 -9 -73.5l-3 -17c-4 24 -7.33301 52.167 -10 84.5s-7 81.5 -13 147.5l-135 -62.5l-79 -36.5l85 64.5l101 77.5l-103.5 70.5
l-90.5 62.5l82.5 -33c29 -12 75.5 -33.333 139.5 -64c3.33301 64.667 6 112.834 8 144.501s4 56.5 6 74.5h3c4 0 7.5 -11.333 10.5 -34s8.83301 -83.667 17.5 -183l127 63l87 42c-24 -20 -48.667 -39.333 -74 -58s-67 -47.334 -125 -86.001
c56 -35.333 96.833 -61.833 122.5 -79.5z" />
    <glyph glyph-name="plus" unicode="+" horiz-adv-x="1456" 
d="M628 207v417h-430v43h430v425h45v-425h428v-43h-428v-417h-45z" />
    <glyph glyph-name="comma" unicode="," horiz-adv-x="402" 
d="M210 -29c-11.333 12.667 -17.333 26.333 -18 41c2.66699 40 20 60 52 60c34.667 0 52 -21.333 52 -64c-1.33301 -6.66699 -3 -13.667 -5 -21l-5 -10l-6 -8l-130 -183h-38z" />
    <glyph glyph-name="hyphen" unicode="-" horiz-adv-x="612" 
d="M128 723c0 20.667 4.66699 31 14 31h280c4 0 6 -10.333 6 -31c0 -20 -2 -30 -6 -30h-281c-8.66699 0 -13 10 -13 30z" />
    <glyph glyph-name="hyphen" unicode="&#xad;" horiz-adv-x="612" 
d="M128 723c0 20.667 4.66699 31 14 31h280c4 0 6 -10.333 6 -31c0 -20 -2 -30 -6 -30h-281c-8.66699 0 -13 10 -13 30z" />
    <glyph glyph-name="period" unicode="." horiz-adv-x="291" 
d="M134 72c34.667 0 52 -21.333 52 -64c-6 -37.333 -24.667 -56 -56 -56c-20.667 0 -36.667 20 -48 60c6 40 23.333 60 52 60z" />
    <glyph glyph-name="slash" unicode="/" horiz-adv-x="1002" 
d="M886 1463c-156.667 -256 -304.167 -513.33 -442.5 -771.997s-255.166 -510.334 -350.499 -755.001l-20 -2c-9.33301 2.66699 -17.5 8.66699 -24.5 18s-11.5 22 -13.5 38c284 617.333 561.333 1123.67 832 1519v-14c11.333 -6.66699 17.666 -17.334 18.999 -32.001z" />
    <glyph glyph-name="zero" unicode="0" horiz-adv-x="580" 
d="M522 754c0 -200.667 -21 -380 -63 -538c-44.667 -168 -101 -252 -169 -252s-123.833 81.167 -167.5 243.5s-65.5 344.5 -65.5 546.5c0 197.333 21.833 373.5 65.5 528.5s99.5 232.5 167.5 232.5s123.667 -77.167 167 -231.5s65 -330.833 65 -529.5zM400 754
c0 224.667 -7.33203 391.332 -21.999 499.999c-18.667 134.667 -48 202 -88 202c-39.333 0 -68.333 -67.333 -87 -202c-16 -112 -24 -278.667 -24 -500c0 -230 7.66699 -401.667 23 -515c18.667 -144.667 48 -217 88 -217c39.333 0 68.666 72.333 87.999 217
c14.667 114.667 22 286.334 22 515.001z" />
    <glyph glyph-name="one" unicode="1" horiz-adv-x="650" 
d="M393 -10h-96v1499h96v-1499z" />
    <glyph glyph-name="two" unicode="2" horiz-adv-x="598" 
d="M527 -10l-458.001 -0.00195312l92 206c61.333 142 110.333 263.333 147 364c26 76.667 47 152.334 63 227.001c22.667 107.333 34 207.333 34 300c0 14 -0.166992 26.333 -0.5 37s-0.833008 20 -1.5 28c-4.66699 101.333 -16 175 -34 221c-19.333 50 -44 75 -74 75
c-43.333 0 -76 -46.667 -98 -140c-8 -32 -14.333 -84.333 -19 -157h-105c12.667 82.667 25.334 141.667 38.001 177c40.667 114 101 171 181 171c70 0 126.667 -41 170 -123c38.667 -72 58 -156 58 -252c0 -178.667 -40 -362 -120 -550
c-22 -53.333 -51.667 -119.666 -89 -198.999l-86 -178l-32 -64h334v-143z" />
    <glyph glyph-name="three" unicode="3" horiz-adv-x="589" 
d="M476 161c-22 -60.667 -51.3301 -110 -87.9971 -148s-76 -57 -118 -57c-38.667 0 -72.334 16.333 -101.001 49c-46.667 52.667 -77.334 124 -92.001 214c-4.66699 29.333 -7.33398 72.666 -8.00098 129.999l104 6v-24c-0.666992 -12 -1 -23.333 -1 -34
c0 -74 5.66699 -134 17 -180c17.333 -70 43.666 -105 78.999 -105c31.333 0 58 21.667 80 65c22 42 37.667 102.333 47 181c4 32.667 7.5 70.334 10.5 113.001s4.5 87 4.5 133c0 54 -3 105.667 -9 155s-15.667 92 -29 128c-23.333 62 -45.666 103.333 -66.999 124
s-54 31 -98 31l123 481l-239 -70v132h361l-119 -478c8.66699 -6.66699 16.667 -13.667 24 -21c43.333 -44 79.333 -104.667 108 -182c20 -53.333 35 -108.333 45 -165s15 -114 15 -172c0 -110.667 -16.333 -212.667 -49 -306z" />
    <glyph glyph-name="four" unicode="4" horiz-adv-x="555" 
d="M506 389h-87v-399h-106v399h-303l312 1100h106l-289 -1035l174 44v452h106v-418l87 35v-178z" />
    <glyph glyph-name="five" unicode="5" horiz-adv-x="587" 
d="M491 1320l-234.999 112v-434c31.333 -2 59.333 -9.33301 84 -22c68 -36.667 117.333 -111 148 -223c12 -44.667 20.833 -89 26.5 -133s8.5 -87.667 8.5 -131c0 -56.667 -4.5 -111.167 -13.5 -163.5s-21.5 -101.833 -37.5 -148.5c-20 -59.333 -49 -109.333 -87 -150
s-79 -61 -123 -61c-38.667 0 -73 17.333 -103 52c-52.667 66.667 -83.667 158.667 -93 276c-0.666992 12.667 -1 28.667 -1 48v39h112c-1.33301 -16 -2.33301 -32 -3 -48s-1 -28.667 -1 -38c0 -70 6 -127 18 -171c16.667 -60.667 41.667 -91 75 -91
c44.667 0 78.334 40 101.001 120c22.667 75.333 34 185.333 34 330c0 127.333 -12.667 230 -38 308c-26.667 86 -62.667 129 -108 129c-20.667 0 -41.334 -9.66699 -62.001 -29c-6.66699 -6 -25.334 -29 -56.001 -69v667h354v-169z" />
    <glyph glyph-name="six" unicode="6" horiz-adv-x="587" 
d="M185 702c0 -137.333 1 -230 3 -278c5.33301 -127.333 16.333 -224.333 33 -291c19.333 -78 45.333 -117 78 -117c34.667 0 62.334 44 83.001 132c17.333 76 26 170.667 26 284c0 123.333 -8.83301 223.833 -26.5 301.5s-38.167 116.5 -61.5 116.5
c-8 1.33301 -12.667 2 -14 2c-20.667 0 -39.334 -14.333 -56.001 -43c-28 -50 -49.667 -85.667 -65 -107zM185 780l9.99902 29.001l-1 10c13.333 23.333 24.333 40 33 50c31.333 36 65 54 101 54c63.333 0 113.333 -48.667 150 -146c30 -81.333 45 -171.666 45 -270.999
c0 -109.333 -13.333 -213.833 -40 -313.5s-59.667 -166.834 -99 -201.501c-27.333 -24.667 -56.666 -37 -87.999 -37c-68.667 0 -123.667 63.333 -165 190c-44 137.333 -66 329.666 -66 576.999c0 177.333 23 348.333 69 513c52 184.667 115.333 277 190 277
c64.667 0 112 -52.667 142 -158c9.33301 -33.333 18.666 -89 27.999 -167h-109v20c0 10 0.333008 20.333 1 31c0 74 -6.33301 128 -19 162s-26.667 51 -42 51c-46.667 0 -83 -75 -109 -225c-19.333 -114.667 -29.666 -263 -30.999 -445z" />
    <glyph glyph-name="seven" unicode="7" horiz-adv-x="475" 
d="M492 1489l-245 -1499h-108l228 1429l-90 -19l-243 -76v165h458z" />
    <glyph glyph-name="eight" unicode="8" horiz-adv-x="589" 
d="M521 471c0 -148.667 -20.999 -270.668 -62.999 -366.001s-97 -143 -165 -143s-123 47.167 -165 141.5s-63 216.833 -63 367.5c0 88.667 16 180.667 48 276c22 66.667 51.667 134.334 89 203.001c31.333 57.333 44.666 86 39.999 86c-9.33301 16.667 -18.333 34 -27 52
c-23.333 46.667 -42.333 89.667 -57 129c-18 46.667 -34.333 91 -49 133c16 48.667 33.833 84 53.5 106s62.834 33 129.501 33c67.333 0 111.666 -7.16699 132.999 -21.5s41 -51.833 59 -112.5c-14 -31.333 -32.667 -77.333 -56 -138c-12.667 -34 -31.667 -76.333 -57 -127
c-8.66699 -18 -18 -36 -28 -54c-4 0 9.33301 -28 40 -84c37.333 -67.333 67 -135 89 -203c32.667 -98 49 -190.667 49 -278zM409.001 1329c-25.333 66.667 -64.334 100.001 -117.001 100.001c-52 0 -90.667 -33.333 -116 -100c0 -16 18.833 -61 56.5 -135
s57.834 -111 60.501 -111s22.667 36.667 60 110s56 118.666 56 135.999zM404 444c0 126 -12.334 237 -37.001 333c-31.333 125.333 -56 188 -74 188c-17.333 0 -41.666 -62 -72.999 -186c-25.333 -98.667 -38 -210.334 -38 -335.001
c0 -131.333 8.33301 -230.666 25 -297.999c20 -78.667 48.667 -118 86 -118c36.667 0 65 39.333 85 118c17.333 70 26 169.333 26 298z" />
    <glyph glyph-name="nine" unicode="9" horiz-adv-x="588" 
d="M518 731c0 -173.333 -25.001 -342.999 -75.001 -508.999c-54.667 -180 -119.334 -270 -194.001 -270c-65.333 0 -110.666 46.333 -135.999 139c-8.66699 29.333 -16 78.666 -22 147.999h74c33.333 96 48 111.833 44 47.5s-6 -101.833 -6 -112.5
c0 -45.333 3.66699 -80.333 11 -105c10 -36.667 24.333 -55 43 -55c48 0 85 73.333 111 220c22.667 122 34 278 34 468c0 266.667 -14.333 463.334 -43 590.001c-22.667 101.333 -51 152 -85 152c-34.667 0 -61 -42 -79 -126c-14 -66 -21 -154.333 -21 -265
c0 -116.667 10 -208.5 30 -275.5s43.333 -103.167 70 -108.5c20.667 0 38.667 11.667 54 35c5.33301 8 8.33301 13.333 9 16l32 -38l-12 -17c-30.667 -46 -64 -69 -100 -69c-64.667 0 -114.667 39 -150 117c-30.667 68 -46 154.667 -46 260
c0 107.333 12.833 207.166 38.5 299.499s57.834 156.833 96.501 193.5c27.333 24.667 56.333 37 87 37c70 0 126 -64.333 168 -193c44.667 -138.667 67 -331.667 67 -579z" />
    <glyph glyph-name="colon" unicode=":" horiz-adv-x="291" 
d="M134 72c34.667 0 52 -21.333 52 -64c-6 -37.333 -24.667 -56 -56 -56c-20.667 0 -36.667 20 -48 60c6 40 23.333 60 52 60zM134 732c34.667 0 52 -21.333 52 -64c-6 -37.333 -24.667 -56 -56 -56c-20.667 0 -36.667 20 -48 60c6 40 23.333 60 52 60z" />
    <glyph glyph-name="semicolon" unicode=";" horiz-adv-x="291" 
d="M134 732c34.667 0 52 -21.333 52 -64c-6 -37.333 -24.667 -56 -56 -56c-20.667 0 -36.667 20 -48 60c6 40 23.333 60 52 60zM100 -29c-11.333 12.667 -17.333 26.333 -18 41c2.66699 40 20 60 52 60c34.667 0 52 -21.333 52 -64c-1.33301 -6.66699 -3 -13.667 -5 -21
l-5 -10l-6 -8l-130 -183h-38z" />
    <glyph glyph-name="semicolon" unicode="&#x37e;" horiz-adv-x="291" 
d="M134 732c34.667 0 52 -21.333 52 -64c-6 -37.333 -24.667 -56 -56 -56c-20.667 0 -36.667 20 -48 60c6 40 23.333 60 52 60zM100 -29c-11.333 12.667 -17.333 26.333 -18 41c2.66699 40 20 60 52 60c34.667 0 52 -21.333 52 -64c-1.33301 -6.66699 -3 -13.667 -5 -21
l-5 -10l-6 -8l-130 -183h-38z" />
    <glyph glyph-name="less" unicode="&#x3c;" horiz-adv-x="1196" 
 />
    <glyph glyph-name="equal" unicode="=" horiz-adv-x="198" 
d="M1701 286c0 20.667 22.667 31 68 31h1356c18 0 27 -10.333 27 -31c0 -20 -9 -30 -27 -30h-1363c-40.667 0 -61 10 -61 30z" />
    <glyph glyph-name="greater" unicode="&#x3e;" horiz-adv-x="1196" 
 />
    <glyph glyph-name="question" unicode="?" horiz-adv-x="303" 
d="M43 1392v14.999c134 -49.333 201 -120.666 201 -213.999c-84 -328.667 -126 -558.667 -126 -690v-189l-12 -63h-25l-25 289l87 678c0 76 -33.333 134 -100 174zM106 87.999l50 -37.999v-37c0 -12.667 -16.667 -25.334 -50 -38.001c-42 11.333 -63 24 -63 38v37
c0 19.333 21 32 63 38z" />
    <glyph glyph-name="at" unicode="@" horiz-adv-x="2079" 
 />
    <glyph glyph-name="A" unicode="A" horiz-adv-x="402" 
d="M123 395v-337c0 -40.667 -16 -61 -48 -61s-48 22.667 -48 68v983c2 107.333 21 204.666 57 291.999c25.333 62 54.333 102.667 87 122c14 8 25 12 33 12c7.33301 0 18.333 -4 33 -12c12.667 -19.333 32 -54 58 -104c35.333 -99.333 54 -202.666 56 -309.999v-983
c0 -45.333 -6 -68 -18 -68c-32 0 -48 20.333 -48 61v337h-162zM285 456v506h-1v124c0 93.333 -26.667 189.666 -80 288.999c-53.333 -99.333 -80 -195.666 -80 -288.999v-124h-1v-506h162z" />
    <glyph glyph-name="B" unicode="B" horiz-adv-x="460" 
d="M229 1432c93.333 0 147.334 -66.333 162.001 -199c0 -110.667 -54 -223 -162 -337v-13c112 -47.333 178.667 -95.333 200 -144c21.333 -38 32.666 -85.333 33.999 -142c-6.66699 -234.667 -121 -433.667 -343 -597h-53l-37 37v1258c0 67.333 66.333 113 199 137z
M126.001 1246v-374.999h28c100 82.667 150 199.334 150 350.001v74c0 45.333 -21 78.666 -63 99.999c-76 -0.666992 -114.333 -50.334 -115 -149.001zM140.001 833.001l-14 -11.999v-749l16 -12c149.333 81.333 224 268.666 224 561.999c0 140.667 -75.333 211 -226 211z
" />
    <glyph glyph-name="C" unicode="C" horiz-adv-x="507" 
d="M398 1436l24.001 -24.001v-12l-12 -12c-110.667 -51.333 -181.334 -114 -212.001 -188c-48 -96 -72 -220 -72 -372c0 -238.667 80 -510.667 240 -816l-12 -12h-96c-96 113.333 -172 345.333 -228 696c-2 26 -3 52 -3 78s1 52 3 78c0 270.667 110.667 465.334 332 584.001
h36z" />
    <glyph glyph-name="D" unicode="D" horiz-adv-x="594" 
d="M231 1432c150.667 0 242.667 -142.334 276 -427.001v-163c0 -343.333 -125.667 -619.666 -377 -828.999l-75 -13l-25 38v1256c0 62.667 67 108.667 201 138zM126 1198l0.000976562 -1135c175.333 163.333 263 423 263 779v125c-18.667 278 -81.334 417 -188.001 417
c-50 0 -75 -62 -75 -186z" />
    <glyph glyph-name="E" unicode="E" horiz-adv-x="507" 
d="M126 842v-14.002c0 -238.667 80 -510.667 240 -816l-12 -12h-96c-96 113.333 -172 345.333 -228 696c-2 26 -3 52 -3 78s1 52 3 78c0 270.667 110.667 465.334 332 584.001h36l24 -24v-12l-12 -12c-110.667 -51.333 -181.334 -114 -212.001 -188
c-39.333 -79.333 -62.666 -178.666 -69.999 -297.999h204v-60h-206z" />
    <glyph glyph-name="F" unicode="F" horiz-adv-x="384" 
d="M54 1470c6.66699 3.33301 14.666 5 23.999 5c8.66699 0 16.334 -1.66699 23.001 -5h221c4 0 6 -10.333 6 -31c0 -20 -2 -30 -6 -30h-196v-387h128c18 0 27 -10.333 27 -31c0 -20 -9 -30 -27 -30h-128v-876l2 -61l-37 -24h-24l-37 37v1383c-1.33301 4.66699 -2 11 -2 19
c0 20.667 4.66699 31 14 31h12z" />
    <glyph glyph-name="G" unicode="G" horiz-adv-x="652" 
d="M563 501h0.999023c-32 -284 -118.333 -455 -259 -513h-11c-150.667 0 -238.667 201 -264 603v176c0 379.333 83.667 601 251 665c4.66699 0.666992 9 1 13 1s8 -0.333008 12 -1c79.333 -22 141 -75 185 -159h-89c-23.333 76.667 -51 118 -83 124h-25
c-91.333 6.66699 -143.333 -195 -156 -605v-113c0 -348 43.667 -565.667 131 -653c6.66699 -3.33301 23.334 -3.33301 50.001 0c62.667 10 106.667 156.667 132 440h-68c-40.667 0 -61 10 -61 30c0 20.667 22.667 31 68 31h146c16.667 0 25.667 -8.66699 27 -26z" />
    <glyph glyph-name="H" unicode="H" horiz-adv-x="507" 
d="M126 740v-655l2 -61l-37 -24h-24l-37 37v1377c0 40.667 16 61 48 61s48 -22.667 48 -68v-606h206v613c0 40.667 16 61 48 61c12 0 18 -22.667 18 -68v-1322l2 -61l-7 -24h-24l-37 37v703h-206z" />
    <glyph glyph-name="I" unicode="I" horiz-adv-x="198" 
d="M78 1475c32 0 48 -22.667 48 -68v-1322l2 -61l-37 -24h-24l-37 37v1377c0 40.667 16 61 48 61z" />
    <glyph glyph-name="J" unicode="J" horiz-adv-x="297" 
d="M156 510v904c0 40.667 16 61 48 61s48 -22.667 48 -68v-983c-2 -107.333 -20.833 -204.5 -56.5 -291.5s-78.5 -132.167 -128.5 -135.5h-12l-25 25c83.333 126 125 247.333 125 364v124h1z" />
    <glyph glyph-name="K" unicode="K" horiz-adv-x="542" 
d="M269 752c69.333 -44 114.667 -143.332 136 -297.999l84 -444l-12 -12h-72c-38 0 -78 188 -120 564c-20 104 -64 156 -132 156l-24 -108v-600l-12 -12h-48l-39 24v1386c0 16 8 24 24 24h48c15.333 0 23.333 -4 24 -12v-633c86.667 9.33301 139 60.666 157 153.999
c42 327.333 82 491 120 491h72l12 -12l-84 -371c-21.333 -153.333 -66 -252.333 -134 -297z" />
    <glyph glyph-name="L" unicode="L" horiz-adv-x="437" 
d="M30 42v1372c0 40.667 16 61 48 61s48 -22.667 48 -68v-1322l1 -24h244c18 0 27 -10.333 27 -31c0 -20 -9 -30 -27 -30h-304l-1 1c-26 3.33301 -39 13 -39 29c0 4.66699 1 8.66699 3 12z" />
    <glyph glyph-name="M" unicode="M" horiz-adv-x="839" 
d="M439 1372c-40.667 -34.667 -61.001 -91.333 -61.001 -170v-1169l-24 -33h-48l-24 33v1136c0 84.667 -20 150.334 -60 197.001h-12c-56 0 -84 -54.667 -84 -164v-1169l-24 -33h-48l-24 33v1284c0 41.333 64 79.666 192 114.999h24c48 -44 72 -82.333 72 -115h12
c34 62 66.667 97 98 105c18 6.66699 34.333 10 49 10c110.667 0 177.334 -214 200.001 -642c10.667 -170 38 -428.667 82 -776v-2c0 -8 -4.33301 -12 -13 -12h-83c-32 -0 -60.667 331.333 -86 994c-18.667 252 -64.667 378 -138 378z" />
    <glyph glyph-name="N" unicode="N" horiz-adv-x="600" 
d="M180 1383c-33.333 -30 -50 -81 -50 -153v-1197c0 -22 -8.66699 -33 -26 -33h-70v1214l-4 118c58 46.667 108 77 150 91c18 6 34.333 9 49 9c110.667 0 177.334 -213.333 200.001 -640c10.667 -168 38 -427.333 82 -778v-2c0 -8 -4.33301 -12 -13 -12h-83
c-32 -0 -60.667 331.333 -86 994c-18.667 259.333 -68.334 389 -149.001 389z" />
    <glyph glyph-name="O" unicode="O" horiz-adv-x="652" 
d="M306 1432c181.333 -50.667 272 -263.999 272 -639.999v-13c0 -452.667 -91 -716.334 -273 -791.001h-11c-150.667 0 -238.667 201 -264 603v176c0 379.333 83.667 601 251 665c4.66699 0.666992 9 1 13 1s8 -0.333008 12 -1zM138 679.001
c0 -348 43.665 -565.667 130.998 -653c6.66699 -3.33301 23.334 -3.33301 50.001 0c82.667 13.333 133 264.333 151 753c-25.333 398 -75.666 604 -150.999 618h-25c-91.333 6.66699 -143.333 -195 -156 -605v-113z" />
    <glyph glyph-name="P" unicode="P" horiz-adv-x="507" 
d="M229 1426c120.667 0 193.333 -78.667 218 -236c0 -134 -72.667 -266.667 -218 -398c-50 -41.333 -84.333 -62 -103 -62v-719l-15 -11h-81v1314c0 40 66.333 77.333 199 112zM125.999 1048v-249h28c116.667 92 175 225 175 399v49c0 70.667 -25 119 -75 145h-62
c-44 0 -66 -114.667 -66 -344z" />
    <glyph glyph-name="Q" unicode="Q" horiz-adv-x="699" 
d="M416 209c26.667 126 44.665 316.001 53.998 570.001c-25.333 398 -75.666 604 -150.999 618h-25c-91.333 6.66699 -143.333 -195 -156 -605v-113c0 -348 43.667 -565.667 131 -653c6.66699 -3.33301 23.334 -3.33301 50.001 0
c33.333 5.33301 61.666 49.666 84.999 132.999l-35 41c-6.66699 9.33301 -10 17 -10 23c0 4 1 7 3 9c2.66699 4 6 6 10 6c4.66699 0 9.33398 -2 14.001 -6c10.667 -7.33301 20.667 -15 30 -23zM445.998 109.001c-38.667 -58 -85.667 -98.332 -141 -120.999h-11
c-150.667 0 -238.667 201 -264 603v176c0 379.333 83.667 601 251 665c4.66699 0.666992 9 1 13 1s8 -0.333008 12 -1c181.333 -50.667 272 -264 272 -640v-13c0 -280 -34.667 -487.667 -104 -623c50 -52.667 75 -103.334 75 -152.001v-16z" />
    <glyph glyph-name="R" unicode="R" horiz-adv-x="606" 
d="M229 1426c120.667 0 193.333 -78.667 218 -236c0 -134 -72.667 -266.667 -218 -398v-25c135.333 0 214 -190.667 236 -572l60 -187l-12 -8h-25c-58 0 -90.333 31.667 -97 95l-87 523c-50.667 74.667 -100.667 112 -150 112h-28v-719l-15 -11h-81v1314
c0 40 66.333 77.333 199 112zM125.999 1048v-249h28c116.667 92 175 225 175 399v49c0 70.667 -25 119 -75 145h-62c-44 0 -66 -114.667 -66 -344z" />
    <glyph glyph-name="S" unicode="S" horiz-adv-x="402" 
d="M254 1462l24.999 -0.00195312l25 -25c-126 -40 -192.333 -129.667 -199 -269v-50c0 -75.333 54.667 -230.333 164 -465c24.667 -75.333 37 -150.666 37 -225.999c-52 -284.667 -119 -427 -201 -427h-12l-25 25c83.333 152.667 125 274 125 364v88
c0 68.667 -27.167 169.334 -81.5 302.001s-81.5 219 -81.5 259v67c6.66699 154.667 81.334 273.667 224.001 357z" />
    <glyph glyph-name="T" unicode="T" 
d="M275 1421c0.666992 -4.66699 1 -9.33301 1 -14v-1322l2 -61l-37 -24h-24l-37 37v1384h-84c-44 0 -66 10 -66 30c0 20.667 24.333 31 73 31h294c19.333 0 29 -10.333 29 -31c0 -20 -9.66699 -30 -29 -30h-122z" />
    <glyph glyph-name="U" unicode="U" horiz-adv-x="460" 
d="M78 1454c32 0 48 -14.667 48 -44v-1233c0 -34.667 8.66699 -68.667 26 -102s54.333 -50 111 -50c19.333 -0.666992 29 7.33301 29 24v1360c0 30 16 45 48 45s48 -14.667 48 -44v-1311c0 -74 -45.667 -111 -137 -111c-147.333 0 -221 135 -221 405v1017
c0 29.333 16 44 48 44z" />
    <glyph glyph-name="V" unicode="V" horiz-adv-x="542" 
d="M298 136c58.667 320 108.666 746.667 149.999 1280h13l12 -12h13c-73.333 -890 -141 -1355 -203 -1395c-9.33301 -8 -19 -12 -29 -12c-68.667 0 -139.667 469 -213 1407l38 25c50 0 74 -91.667 72 -275c10.667 -106 49.334 -445.333 116.001 -1018
c10 -30.667 20.333 -30.667 31 0z" />
    <glyph glyph-name="W" unicode="W" horiz-adv-x="903" 
d="M79 1429c50 0 74 -91.668 72 -275.001c10.667 -106 49.334 -445.333 116.001 -1018c7.33301 -30.667 15.666 -30.667 24.999 0c75.333 476.667 113 827.334 113 1052v26l-12 190l37 25c50.667 0 76 -164.667 76 -494l113 -799c8 -30.667 16.333 -30.667 25 0
c58.667 320 108.667 746.667 150 1280h13l12 -12h13c-77.333 -938 -148.333 -1407 -213 -1407h-13c-50 0 -100.333 257.667 -151 773l-12 38c-16.667 0 -50.334 -202.667 -101.001 -608c-15.333 -135.333 -44.666 -203 -87.999 -203c-68.667 0 -139.667 469 -213 1407z" />
    <glyph glyph-name="X" unicode="X" horiz-adv-x="414" 
d="M243 716c51.333 -288.667 97.666 -475.667 138.999 -561l25 -49c-15.333 -36.667 -32 -72 -50 -106h-12l-64 224l-82 369l-83 -369l-64 -224h-12c-18 34 -34.667 69.333 -50 106l25 49c41.333 85.333 87.666 272.333 138.999 561c-0.666992 32 -1 64 -1 96v19
c-37.333 212 -76.666 360.667 -117.999 446l-25 49c15.333 36.667 32 72 50 106h12l64 -224l62 -231l63 231l54 224h22c18 -34 34.667 -69.333 50 -106l-25 -49c-41.333 -85.333 -80.666 -234 -117.999 -446v-19c0 -32 -0.333008 -64 -1 -96z" />
    <glyph glyph-name="Y" unicode="Y" horiz-adv-x="531" 
d="M214 485c-59.333 75.333 -120.668 381.667 -184.001 919l38 25c30.667 -8 54.667 -99.667 72 -275c10.667 -106 49.334 -288.667 116.001 -548c10 -30.667 20.333 -30.667 31 0l150 810h13l12 -12h13c-59.333 -464.667 -114.333 -755 -165 -871v-458
c0 -50 -11.667 -75 -35 -75h-24c-24.667 0 -37 25 -37 75v410z" />
    <glyph glyph-name="Z" unicode="Z" horiz-adv-x="448" 
d="M102 1432l228 0.000976562l48 -33c0 -84 -64 -400.333 -192 -949l-36 -389h204l24 -22v-39h-324l-24 33v16c0 243.333 80 637.666 240 1183l22 139h-202l-24 12v16c0 22 12 33 36 33z" />
    <glyph glyph-name="bracketleft" unicode="[" horiz-adv-x="569" 
 />
    <glyph glyph-name="backslash" unicode="\" horiz-adv-x="569" 
 />
    <glyph glyph-name="bracketright" unicode="]" horiz-adv-x="569" 
 />
    <glyph glyph-name="asciicircum" unicode="^" horiz-adv-x="961" 
 />
    <glyph glyph-name="underscore" unicode="_" horiz-adv-x="1139" 
 />
    <glyph glyph-name="grave" unicode="`" horiz-adv-x="439" 
d="M352 1201h-38l-154 218c-8 10.667 -12 20 -12 28c0 6 1.66699 11.667 5 17c7.33301 9.33301 17.333 14 30 14c9.33301 0 18.333 -3 27 -9z" />
    <glyph glyph-name="a" unicode="a" 
d="M210 1044c116 0 184 -88 204 -264v-720c-36 -48 -88 -72 -156 -72h-24c-112 0 -180 96 -204 288c0 148 96 296 288 444v96c0 94 -48 166 -144 216l12 12h24zM294 648c-104 -118 -156 -250 -156 -396c26 -144 74 -216 144 -216l36 36v576h-24z" />
    <glyph glyph-name="b" unicode="b" 
d="M54 1512h60.001c8 0 12 -2.66699 12 -8v-472c41.333 21.333 69.333 32 84 32c116.667 0 186 -108 208 -324v-140c-13.333 -112.667 -37.333 -222 -72 -328c-72.667 -189.333 -140.667 -284 -204 -284h-8c-58.667 0 -93.334 41.333 -104.001 124v1384c0 10.667 8 16 24 16
zM126.001 940l-0.000976562 -843.999c5.33301 -40 17.333 -60 36 -60c69.333 26 121.333 195.333 156 508l4 168c-13.333 210.667 -50.666 316 -111.999 316l-16 4c-45.333 -24.667 -68 -55.334 -68 -92.001z" />
    <glyph glyph-name="c" unicode="c" horiz-adv-x="408" 
d="M331 1055v-13c-142 -68.667 -213 -181.667 -213 -339v-125c0 -147.333 54.333 -340 163 -578h-108c-56 0 -103.667 196.667 -143 590v25c0 241.333 100.333 388 301 440z" />
    <glyph glyph-name="d" unicode="d" horiz-adv-x="594" 
d="M342 1473h36l36 -24v-1401c-50 -40 -90 -60 -120 -60h-72c-110 0 -174 120 -192 360v48c0 258 96 474 288 648v405zM138 432v-60c0 -232 48 -348 144 -348c24 30 36 58 36 84v864c-120 -114 -180 -294 -180 -540z" />
    <glyph glyph-name="e" unicode="e" 
d="M270 1044c66 0 110 -64 132 -192c0 -120 -88 -256 -264 -408c36 -156 92 -300 168 -432l-12 -12h-96c-112 164 -168 384 -168 660c0 208 72 336 216 384h24zM126 720v-204c80 48 140 156 180 324v36c-10 80 -26 120 -48 120c-16.667 2.66699 -28.667 2.66699 -36 0
c-64 -44 -96 -136 -96 -276z" />
    <glyph glyph-name="f" unicode="f" horiz-adv-x="303" 
d="M30 979h-38c-6.66699 0 -10 10 -10 30c0 20.667 3.66699 31 11 31h37v171c20 176 88 264 204 264h24l12 -12c-96 -50 -144 -122 -144 -216v-207h72c2.66699 0 4 -10.333 4 -31c0 -20 -1.33301 -30 -4 -30h-72v-904c0 -50 -14 -75 -42 -75c-36 0 -54 25 -54 75v904z" />
    <glyph glyph-name="g" unicode="g" 
d="M211 1040l201 -13.001h12v-38l-50 -12l13 -126c0 -97.333 -84 -248 -252 -452c0.666992 -17.333 63.667 -76 189 -176c42 -82.667 63 -157.667 63 -225c0 -108 -50.333 -217 -151 -327l-13 13v13c58.667 80.667 88 160 88 238v63c0 102.667 -87.667 215.334 -263 338.001
v13c33.333 50 50 87.667 50 113l-63 276c0 123.333 58.667 224 176 302zM123 813.999v-101c12.667 -92 33.667 -138 63 -138h12c67.333 68.667 101 139.667 101 213v164l-51 50c-83.333 -13.333 -125 -76 -125 -188z" />
    <glyph glyph-name="h" unicode="h" horiz-adv-x="547" 
d="M79 1475c31.333 0 47 -20.334 47 -61.001v-358c0 -24.667 6 -37 18 -37h58c139.333 0 209 -180 209 -540l59 -479h-59c-32.667 0 -49 53.333 -49 160l-74 700c-27.333 80.667 -52 121.334 -74 122.001h-37c-34 0 -51 -49 -51 -147v-786
c1.33301 -32.667 -14.667 -49 -48 -49c-32 1.33301 -48 19.333 -48 54v1360c0 40.667 16.333 61 49 61z" />
    <glyph glyph-name="i" unicode="i" horiz-adv-x="198" 
d="M82 1384c34.667 0 52 -21.333 52 -64c-6 -37.333 -24.667 -56 -56 -56c-20.667 0 -36.667 20 -48 60c6 40 23.333 60 52 60zM54 1044h48c16 0 24 -8 24 -24v-1004c0 -10.667 -4.33301 -16 -13 -16h-55c-18.667 -0 -28 9.33301 -28 28v1000
c2.66699 10.667 10.667 16 24 16z" />
    <glyph glyph-name="j" unicode="j" horiz-adv-x="227" 
d="M87 1365c34 -12.667 51 -25.333 51 -38v-38l-38 -38l-63 51c11.333 38.667 28 59.667 50 63zM85 1044c32 0 48 -25 48 -75v-848c0 -270.667 -73.667 -450.667 -221 -540h-13v13c92 44 138 211.333 138 502v873c0 50 16 75 48 75z" />
    <glyph glyph-name="k" unicode="k" horiz-adv-x="542" 
d="M54 1475h48c15.333 0 23.333 -4 24 -12v-563h24c60 96 128 144 204 144l12 -12v-12c-128 -78 -192 -158 -192 -240c122 0 198 -108 228 -324l84 -444l-12 -12h-72c-38 0 -78 188 -120 564l-12 12c-12 96 -52 144 -120 144l-24 -108v-600l-12 -12h-48l-36 24v1427
c0 16 8 24 24 24z" />
    <glyph glyph-name="l" unicode="l" horiz-adv-x="198" 
d="M78 1475c32 0 48 -22.667 48 -68v-1322l2 -61l-37 -24h-24l-37 37v1377c0 40.667 16 61 48 61z" />
    <glyph glyph-name="m" unicode="m" horiz-adv-x="804" 
d="M439 1000c-40.667 -25.333 -61.001 -66.667 -61.001 -124v-852l-24 -24h-48l-24 24v828c0 62 -20 110 -60 144h-12c-56 0 -84 -40 -84 -120v-852l-24 -24h-48l-24 24v936c0 30 64 58 192 84h24c48 -32 72 -60 72 -84h12c34 45.333 66.667 71 98 77
c18 4.66699 34.333 7 49 7c110.667 0 177.334 -156 200.001 -468c10.667 -124 38 -312.667 82 -566v-1c0 -6 -4.33301 -9 -13 -9h-83c-32 0 -60.667 241.667 -86 725c-18.667 183.333 -64.667 275 -138 275z" />
    <glyph glyph-name="n" unicode="n" horiz-adv-x="600" 
d="M180 1020c-33.333 -22 -50 -59.667 -50 -113v-883c0 -16 -8.66699 -24 -26 -24h-70v895l-4 87c58 34.667 108 57 150 67c18 4.66699 34.333 7 49 7c110.667 0 177.334 -157.333 200.001 -472c10.667 -124 38 -315.333 82 -574v-1c0 -6 -4.33301 -9 -13 -9h-83
c-32 -0 -60.667 244.333 -86 733c-18.667 191.333 -68.334 287 -149.001 287z" />
    <glyph glyph-name="o" unicode="o" horiz-adv-x="624" 
d="M266 1045c133.333 0 206.667 -170 220 -510v-50c0 -294.667 -77.333 -464.667 -232 -510h-13c-122.667 0 -193 141 -211 423v174c0 258.667 66.333 412 199 460zM138.001 510c12.667 -332 55.333 -498 128 -498h13c49.333 0 82.333 161.667 99 485v25
c-16.667 324 -54 486 -112 486h-37c-44 -8 -74.333 -174 -91 -498z" />
    <glyph glyph-name="p" unicode="p" horiz-adv-x="507" 
d="M217 1069c146.667 0 220 -132.667 220 -398c0 -258.667 -103.667 -490.667 -311 -696v-356l-21 -25h-38l-37 38v1326c8 30.667 70.333 67.667 187 111zM126 970v-907.999h12c127.333 122 191 312.667 191 572v124c-6.66699 149.333 -36 236.666 -88 261.999h-24
c-42 0 -72.333 -16.667 -91 -50z" />
    <glyph glyph-name="q" unicode="q" horiz-adv-x="536" 
d="M437 958v-1326l-37 -38h-38l-21 25v356c-207.333 205.333 -311 437.333 -311 696c0 265.333 73.333 398 220 398c116.667 -43.333 179 -80.333 187 -111zM250 1020l-24 -0.000976562c-52 -25.333 -81 -112.666 -87 -261.999v-124c0 -259.333 63.333 -450 190 -572h12v908
c-18.667 33.333 -49 50 -91 50z" />
    <glyph glyph-name="r" unicode="r" horiz-adv-x="355" 
d="M291 1055c18 0 27 -3.66797 27 -11.001c-128 -63.333 -192 -141.666 -192 -234.999v-734c0 -42 -15.333 -67 -46 -75c-33.333 8 -50 33 -50 75v758c0 68 87 142 261 222z" />
    <glyph glyph-name="s" unicode="s" horiz-adv-x="309" 
d="M156 1042h24.999c-58.667 -60 -88 -110 -88 -150v-63l125 -352l26 -113v-50c-27.333 -209.333 -73.666 -314 -138.999 -314h-12l-38 13v25c67.333 96 101 200.667 101 314c0 48 -37.667 182 -113 402l-13 75c0 85.333 42 156.333 126 213z" />
    <glyph glyph-name="t" unicode="t" horiz-adv-x="378" 
d="M124 1044v150.001c0 31.333 12.667 56.333 38 75l57 -12v-213h101v-61h-101v-716c0 -126.667 23.667 -215.334 71 -266.001l-78 -13c-58.667 0 -88 92 -88 276v719h-94v61h94z" />
    <glyph glyph-name="u" unicode="u" horiz-adv-x="507" 
d="M78 1044c32 0 48 -14.667 48 -44v-823c0 -34.667 8.66699 -68.667 26 -102s54.333 -50 111 -50c19.333 -0.666992 29 7.33301 29 24v950c0 30 16 45 48 45s48 -14.667 48 -44v-901c0 -74 -45.667 -111 -137 -111c-147.333 0 -221 135 -221 405v607c0 29.333 16 44 48 44z
" />
    <glyph glyph-name="v" unicode="v" horiz-adv-x="454" 
d="M30 598l-0.000976562 418.998c0 21.333 16.667 34 50 38l46 -38v-314c0 -301.333 30.667 -498 92 -590c36.667 14.667 59.334 144.334 68.001 389.001v515l45 38h13l38 -38v-314c0 -297.333 -63 -531.666 -189 -702.999h-12l-113 289c-25.333 50 -38 153 -38 309z" />
    <glyph glyph-name="w" unicode="w" horiz-adv-x="734" 
d="M93 1055l45 -13.001l-10 -251l-2 -163c14 -312 44.667 -483.667 92 -515h26c41.333 134 62 410.333 62 829v75c0 21.333 17 34 51 38l45 -38v-314c0 -301.333 31 -498 93 -590c36.667 14.667 59 144.334 67 389.001v515l46 38h12l38 -38v-314
c0 -297.333 -62.667 -531.666 -188 -702.999h-13l-113 289h-13c-41.333 -140 -83 -232 -125 -276h-25c-100.667 169.333 -151 407.666 -151 714.999v114c0 142 21 213 63 213z" />
    <glyph glyph-name="x" unicode="x" horiz-adv-x="414" 
d="M243 522c51.333 -210.667 97.666 -347 138.999 -409l25 -36c-15.333 -26.667 -32 -52.334 -50 -77.001h-12l-64 163l-82 269l-83 -269l-64 -163h-12c-18 24.667 -34.667 50.334 -50 77.001l25 36c41.333 62 87.666 198.333 138.999 409
c-0.666992 23.333 -1 46.666 -1 69.999v14c-37.333 154.667 -76.666 263 -117.999 325l-25 36c15.333 26.667 32 52.334 50 77.001h12l64 -163l62 -169l63 169l54 163h22c18 -24.667 34.667 -50.334 50 -77.001l-25 -36c-41.333 -62 -80.666 -170.333 -117.999 -325v-14
c0 -23.333 -0.333008 -46.666 -1 -69.999z" />
    <glyph glyph-name="y" unicode="y" horiz-adv-x="600" 
d="M67 1034h13.001c41.333 0 62 -165.667 62 -497c24.667 -348 62 -522 112 -522h12c43.333 0 76.333 236.333 99 709c12.667 206.667 33.667 310 63 310h12l37 -37h13c-64.667 -820 -122.667 -1230 -174 -1230c-44 -85.333 -98 -143.666 -162 -174.999v25
c91.333 97.333 137 217.666 137 360.999h-13c-148.667 0 -226.334 203 -233.001 609l-15 423z" />
    <glyph glyph-name="z" unicode="z" horiz-adv-x="454" 
d="M102 1044l228 0.000976562l48 -24c0 -61.333 -64 -292 -192 -692l-36 -267h204l24 -25v-36h-324l-24 24v12c0 177.333 80 464.666 240 861.999l22 85h-202l-24 25v12c0 16 12 24 36 24z" />
    <glyph glyph-name="braceleft" unicode="{" horiz-adv-x="684" 
 />
    <glyph glyph-name="bar" unicode="|" horiz-adv-x="532" 
 />
    <glyph glyph-name="braceright" unicode="}" horiz-adv-x="684" 
 />
    <glyph glyph-name="asciitilde" unicode="~" horiz-adv-x="1196" 
 />
    <glyph glyph-name="exclamdown" unicode="&#xa1;" horiz-adv-x="682" 
 />
    <glyph glyph-name="cent" unicode="&#xa2;" horiz-adv-x="600" 
 />
    <glyph glyph-name="sterling" unicode="&#xa3;" horiz-adv-x="600" 
 />
    <glyph glyph-name="currency" unicode="&#xa4;" horiz-adv-x="1139" 
 />
    <glyph glyph-name="yen" unicode="&#xa5;" horiz-adv-x="227" 
 />
    <glyph glyph-name="brokenbar" unicode="&#xa6;" horiz-adv-x="532" 
 />
    <glyph glyph-name="section" unicode="&#xa7;" horiz-adv-x="891" 
 />
    <glyph glyph-name="dieresis" unicode="&#xa8;" horiz-adv-x="402" 
d="M82 1384c34.667 0 52 -21.333 52 -64c-6 -37.333 -24.667 -56 -56 -56c-20.667 0 -36.667 20 -48 60c6 40 23.333 60 52 60zM292 1384c34.667 0 52 -21.333 52 -64c-6 -37.333 -24.667 -56 -56 -56c-20.667 0 -36.667 20 -48 60c6 40 23.333 60 52 60z" />
    <glyph glyph-name="copyright" unicode="&#xa9;" horiz-adv-x="1509" 
 />
    <glyph glyph-name="guillemotleft" unicode="&#xab;" horiz-adv-x="1139" 
 />
    <glyph glyph-name="registered" unicode="&#xae;" horiz-adv-x="1509" 
 />
    <glyph glyph-name="macron" unicode="&#xaf;" horiz-adv-x="1131" 
 />
    <glyph glyph-name="degree" unicode="&#xb0;" horiz-adv-x="495" 
 />
    <glyph glyph-name="uni00B2" unicode="&#xb2;" horiz-adv-x="682" 
 />
    <glyph glyph-name="uni00B3" unicode="&#xb3;" horiz-adv-x="682" 
 />
    <glyph glyph-name="acute" unicode="&#xb4;" horiz-adv-x="439" 
d="M290 1469c8.66699 6 17.667 9 27 9c12.667 0 22.667 -4.66699 30 -14c3.33301 -5.33301 5 -11 5 -17c0 -8 -4 -17.333 -12 -28l-154 -218h-38z" />
    <glyph glyph-name="paragraph" unicode="&#xb6;" horiz-adv-x="466" 
 />
    <glyph glyph-name="periodcentered" unicode="&#xb7;" horiz-adv-x="569" 
 />
    <glyph glyph-name="periodcentered" unicode="&#x2219;" horiz-adv-x="569" 
 />
    <glyph glyph-name="cedilla" unicode="&#xb8;" horiz-adv-x="938" 
d="M383 0c22.667 -22.667 34 -57.001 34 -103.001c0 -75.333 -29.333 -131.666 -88 -168.999h-38l-35 26v12c67.333 36.667 101 74.334 101 113.001c0 55.333 -16.333 95.666 -49 120.999h75z" />
    <glyph glyph-name="uni00B9" unicode="&#xb9;" horiz-adv-x="682" 
 />
    <glyph glyph-name="guillemotright" unicode="&#xbb;" horiz-adv-x="1139" 
 />
    <glyph glyph-name="onequarter" unicode="&#xbc;" horiz-adv-x="1708" 
 />
    <glyph glyph-name="onehalf" unicode="&#xbd;" horiz-adv-x="1708" 
 />
    <glyph glyph-name="threequarters" unicode="&#xbe;" horiz-adv-x="1708" 
 />
    <glyph glyph-name="questiondown" unicode="&#xbf;" horiz-adv-x="1251" 
 />
    <glyph glyph-name="Agrave" unicode="&#xc0;" horiz-adv-x="402" 
d="M123 395v-337c0 -40.667 -16 -61 -48 -61s-48 22.667 -48 68v983c2 107.333 21 204.666 57 291.999c25.333 62 54.333 102.667 87 122c14 8 25 12 33 12c7.33301 0 18.333 -4 33 -12c12.667 -19.333 32 -54 58 -104c35.333 -99.333 54 -202.666 56 -309.999v-983
c0 -45.333 -6 -68 -18 -68c-32 0 -48 20.333 -48 61v337h-162zM285 456v506h-1v124c0 93.333 -26.667 189.666 -80 288.999c-53.333 -99.333 -80 -195.666 -80 -288.999v-124h-1v-506h162zM288 1570h-38l-154 218c-8 10.667 -12 20 -12 28c0 6 1.66699 11.667 5 17
c7.33301 9.33301 17.333 14 30 14c9.33301 0 18.333 -3 27 -9z" />
    <glyph glyph-name="Aacute" unicode="&#xc1;" horiz-adv-x="402" 
d="M123 395v-337c0 -40.667 -16 -61 -48 -61s-48 22.667 -48 68v983c2 107.333 21 204.666 57 291.999c25.333 62 54.333 102.667 87 122c14 8 25 12 33 12c7.33301 0 18.333 -4 33 -12c12.667 -19.333 32 -54 58 -104c35.333 -99.333 54 -202.666 56 -309.999v-983
c0 -45.333 -6 -68 -18 -68c-32 0 -48 20.333 -48 61v337h-162zM285 456v506h-1v124c0 93.333 -26.667 189.666 -80 288.999c-53.333 -99.333 -80 -195.666 -80 -288.999v-124h-1v-506h162zM244 1843c8.66699 6 17.667 9 27 9c12.667 0 22.667 -4.66699 30 -14
c3.33301 -5.33301 5 -11 5 -17c0 -8 -4 -17.333 -12 -28l-154 -218h-38z" />
    <glyph glyph-name="Acircumflex" unicode="&#xc2;" horiz-adv-x="402" 
d="M123 395v-337c0 -40.667 -16 -61 -48 -61s-48 22.667 -48 68v983c2 107.333 21 204.666 57 291.999c25.333 62 54.333 102.667 87 122c14 8 25 12 33 12c7.33301 0 18.333 -4 33 -12c12.667 -19.333 32 -54 58 -104c35.333 -99.333 54 -202.666 56 -309.999v-983
c0 -45.333 -6 -68 -18 -68c-32 0 -48 20.333 -48 61v337h-162zM285 456v506h-1v124c0 93.333 -26.667 189.666 -80 288.999c-53.333 -99.333 -80 -195.666 -80 -288.999v-124h-1v-506h162zM76 1579c-8.66699 -6 -17.667 -9 -27 -9c-12.667 0 -22.667 4.66699 -30 14
c-3.33301 5.33301 -5 11 -5 17c0 8 4 17.333 12 28l154 218h42l154 -218c8 -10.667 12 -20 12 -28c0 -6 -1.66699 -11.667 -5 -17c-7.33301 -9.33301 -17.333 -14 -30 -14c-9.33301 0 -18.333 3 -27 9l-125 236z" />
    <glyph glyph-name="Atilde" unicode="&#xc3;" horiz-adv-x="402" 
d="M123 395v-337c0 -40.667 -16 -61 -48 -61s-48 22.667 -48 68v983c2 107.333 21 204.666 57 291.999c25.333 62 54.333 102.667 87 122c14 8 25 12 33 12c7.33301 0 18.333 -4 33 -12c12.667 -19.333 32 -54 58 -104c35.333 -99.333 54 -202.666 56 -309.999v-983
c0 -45.333 -6 -68 -18 -68c-32 0 -48 20.333 -48 61v337h-162zM285 456v506h-1v124c0 93.333 -26.667 189.666 -80 288.999c-53.333 -99.333 -80 -195.666 -80 -288.999v-124h-1v-506h162zM206 1637c-4.66699 -8 -14.668 -17.667 -30.001 -29c-6 -4 -12.333 -7 -19 -9
c-12 -4.66699 -25 -7 -39 -7c-48 0 -80 40 -96 120h35c16 -52.667 37.333 -79 64 -79c23.333 0 41.333 8 54 24c7.33301 6.66699 13.333 15.667 18 27c10.667 13.333 23.667 22 39 26c7.33301 1.33301 14 2 20 2c62 0 100.333 -40 115 -120h-31c-12 52 -39 78 -81 78
c-18 0 -33 -8.66699 -45 -26c-1.33301 -2.66699 -2.66602 -5 -3.99902 -7z" />
    <glyph glyph-name="Adieresis" unicode="&#xc4;" horiz-adv-x="402" 
d="M123 395v-337c0 -40.667 -16 -61 -48 -61s-48 22.667 -48 68v983c2 107.333 21 204.666 57 291.999c25.333 62 54.333 102.667 87 122c14 8 25 12 33 12c7.33301 0 18.333 -4 33 -12c12.667 -19.333 32 -54 58 -104c35.333 -99.333 54 -202.666 56 -309.999v-983
c0 -45.333 -6 -68 -18 -68c-32 0 -48 20.333 -48 61v337h-162zM285 456v506h-1v124c0 93.333 -26.667 189.666 -80 288.999c-53.333 -99.333 -80 -195.666 -80 -288.999v-124h-1v-506h162zM94 1712c34.667 0 52 -21.333 52 -64c-6 -37.333 -24.667 -56 -56 -56
c-20.667 0 -36.667 20 -48 60c6 40 23.333 60 52 60zM304 1718c34.667 0 52 -21.333 52 -64c-6 -37.333 -24.667 -56 -56 -56c-20.667 0 -36.667 20 -48 60c6 40 23.333 60 52 60z" />
    <glyph glyph-name="Aring" unicode="&#xc5;" horiz-adv-x="402" 
d="M123 395v-337c0 -40.667 -16 -61 -48 -61s-48 22.667 -48 68v983c2 107.333 21 204.666 57 291.999c25.333 62 54.333 102.667 87 122c14 8 25 12 33 12c7.33301 0 18.333 -4 33 -12c12.667 -19.333 32 -54 58 -104c35.333 -99.333 54 -202.666 56 -309.999v-983
c0 -45.333 -6 -68 -18 -68c-32 0 -48 20.333 -48 61v337h-162zM285 456v506h-1v124c0 93.333 -26.667 189.666 -80 288.999c-53.333 -99.333 -80 -195.666 -80 -288.999v-124h-1v-506h162zM158 1676c0 -33.333 13 -50 39 -50c30 0 45 15.667 45 47c0 35.333 -14 53 -42 53
s-42 -16.667 -42 -50zM200 1760c48.667 0 73 -30 73 -90c0 -52 -26.333 -78 -79 -78c-44.667 0 -67 28 -67 84s24.333 84 73 84z" />
    <glyph glyph-name="AE" unicode="&#xc6;" horiz-adv-x="2048" 
 />
    <glyph glyph-name="Ccedilla" unicode="&#xc7;" horiz-adv-x="507" 
d="M275 0l-16.999 -0.00195312c-96 113.333 -172 345.333 -228 696c-2 26 -3 52 -3 78s1 52 3 78c0 270.667 110.667 465.334 332 584.001h36l24 -24v-12l-12 -12c-110.667 -51.333 -181.334 -114 -212.001 -188c-48 -96 -72 -220 -72 -372c0 -238.667 80 -510.667 240 -816
l-12 -12h-4c22.667 -22.667 34 -57 34 -103c0 -75.333 -29.333 -131.666 -88 -168.999h-38l-35 26v12c67.333 36.667 101 74.334 101 113.001c0 55.333 -16.333 95.666 -49 120.999z" />
    <glyph glyph-name="Egrave" unicode="&#xc8;" horiz-adv-x="507" 
d="M126 842v-14.002c0 -238.667 80 -510.667 240 -816l-12 -12h-96c-96 113.333 -172 345.333 -228 696c-2 26 -3 52 -3 78s1 52 3 78c0 270.667 110.667 465.334 332 584.001h36l24 -24v-12l-12 -12c-110.667 -51.333 -181.334 -114 -212.001 -188
c-39.333 -79.333 -62.666 -178.666 -69.999 -297.999h204v-60h-206zM394 1572h-38l-154 218c-8 10.667 -12 20 -12 28c0 6 1.66699 11.667 5 17c7.33301 9.33301 17.333 14 30 14c9.33301 0 18.333 -3 27 -9z" />
    <glyph glyph-name="Eacute" unicode="&#xc9;" horiz-adv-x="507" 
d="M126 842v-14.002c0 -238.667 80 -510.667 240 -816l-12 -12h-96c-96 113.333 -172 345.333 -228 696c-2 26 -3 52 -3 78s1 52 3 78c0 270.667 110.667 465.334 332 584.001h36l24 -24v-12l-12 -12c-110.667 -51.333 -181.334 -114 -212.001 -188
c-39.333 -79.333 -62.666 -178.666 -69.999 -297.999h204v-60h-206zM385 1842c8.66699 6 17.667 9 27 9c12.667 0 22.667 -4.66699 30 -14c3.33301 -5.33301 5 -11 5 -17c0 -8 -4 -17.333 -12 -28l-154 -218h-38z" />
    <glyph glyph-name="Ecircumflex" unicode="&#xca;" horiz-adv-x="507" 
d="M126 842v-14.002c0 -238.667 80 -510.667 240 -816l-12 -12h-96c-96 113.333 -172 345.333 -228 696c-2 26 -3 52 -3 78s1 52 3 78c0 270.667 110.667 465.334 332 584.001h36l24 -24v-12l-12 -12c-110.667 -51.333 -181.334 -114 -212.001 -188
c-39.333 -79.333 -62.666 -178.666 -69.999 -297.999h204v-60h-206zM136 1584c-8.66699 -6 -17.667 -9 -27 -9c-12.667 0 -22.667 4.66699 -30 14c-3.33301 5.33301 -5 11 -5 17c0 8 4 17.333 12 28l154 218h42l154 -218c8 -10.667 12 -20 12 -28
c0 -6 -1.66699 -11.667 -5 -17c-7.33301 -9.33301 -17.333 -14 -30 -14c-9.33301 0 -18.333 3 -27 9l-125 236z" />
    <glyph glyph-name="Edieresis" unicode="&#xcb;" horiz-adv-x="507" 
d="M126 842v-14.002c0 -238.667 80 -510.667 240 -816l-12 -12h-96c-96 113.333 -172 345.333 -228 696c-2 26 -3 52 -3 78s1 52 3 78c0 270.667 110.667 465.334 332 584.001h36l24 -24v-12l-12 -12c-110.667 -51.333 -181.334 -114 -212.001 -188
c-39.333 -79.333 -62.666 -178.666 -69.999 -297.999h204v-60h-206zM174 1712c34.667 0 52 -21.333 52 -64c-6 -37.333 -24.667 -56 -56 -56c-20.667 0 -36.667 20 -48 60c6 40 23.333 60 52 60zM384 1712c34.667 0 52 -21.333 52 -64c-6 -37.333 -24.667 -56 -56 -56
c-20.667 0 -36.667 20 -48 60c6 40 23.333 60 52 60z" />
    <glyph glyph-name="Igrave" unicode="&#xcc;" horiz-adv-x="198" 
d="M98 1475c32 0 48 -22.667 48 -68v-1322l2 -61l-37 -24h-24l-37 37v1377c0 40.667 16 61 48 61zM172 1601h-38l-154 218c-8 10.667 -12 20 -12 28c0 6 1.66699 11.667 5 17c7.33301 9.33301 17.333 14 30 14c9.33301 0 18.333 -3 27 -9z" />
    <glyph glyph-name="Iacute" unicode="&#xcd;" horiz-adv-x="198" 
d="M98 1475c32 0 48 -22.667 48 -68v-1322l2 -61l-37 -24h-24l-37 37v1377c0 40.667 16 61 48 61zM142 1842c8.66699 6 17.667 9 27 9c12.667 0 22.667 -4.66699 30 -14c3.33301 -5.33301 5 -11 5 -17c0 -8 -4 -17.333 -12 -28l-154 -218h-38z" />
    <glyph glyph-name="Icircumflex" unicode="&#xce;" horiz-adv-x="198" 
d="M98 1475c32 0 48 -22.667 48 -68v-1322l2 -61l-37 -24h-24l-37 37v1377c0 40.667 16 61 48 61zM-46 1580c-8.66699 -6 -17.667 -9 -27 -9c-12.667 0 -22.667 4.66699 -30 14c-3.33301 5.33301 -5 11 -5 17c0 8 4 17.333 12 28l154 218h42l154 -218
c8 -10.667 12 -20 12 -28c0 -6 -1.66699 -11.667 -5 -17c-7.33301 -9.33301 -17.333 -14 -30 -14c-9.33301 0 -18.333 3 -27 9l-125 236z" />
    <glyph glyph-name="Idieresis" unicode="&#xcf;" horiz-adv-x="198" 
d="M98 1475c32 0 48 -22.667 48 -68v-1322l2 -61l-37 -24h-24l-37 37v1377c0 40.667 16 61 48 61zM-36 1712c34.667 0 52 -21.333 52 -64c-6 -37.333 -24.667 -56 -56 -56c-20.667 0 -36.667 20 -48 60c6 40 23.333 60 52 60zM174 1712c34.667 0 52 -21.333 52 -64
c-6 -37.333 -24.667 -56 -56 -56c-20.667 0 -36.667 20 -48 60c6 40 23.333 60 52 60z" />
    <glyph glyph-name="Eth" unicode="&#xd0;" horiz-adv-x="670" 
d="M186 693l0.000976562 -630c175.333 163.333 263 423 263 779v125c-18.667 278 -81.334 417 -188.001 417c-50 0 -75 -62 -75 -186v-444h116c4 0 6 -10.333 6 -31c0 -20 -2 -30 -6 -30h-116zM90.001 754v539.999c0 62.667 67 108.667 201 138
c150.667 0 242.667 -142.333 276 -427v-163c0 -343.333 -125.667 -619.666 -377 -828.999l-75 -13l-25 38v655h-69c-8.66699 0 -13 10 -13 30c0 20.667 4.66699 31 14 31h68z" />
    <glyph glyph-name="Ntilde" unicode="&#xd1;" horiz-adv-x="600" 
d="M180 1383c-33.333 -30 -50 -81 -50 -153v-1197c0 -22 -8.66699 -33 -26 -33h-70v1214l-4 118c58 46.667 108 77 150 91c18 6 34.333 9 49 9c110.667 0 177.334 -213.333 200.001 -640c10.667 -168 38 -427.333 82 -778v-2c0 -8 -4.33301 -12 -13 -12h-83
c-32 -0 -60.667 331.333 -86 994c-18.667 259.333 -68.334 389 -149.001 389zM194 1593c-4.66699 -8 -14.668 -18 -30.001 -30c-6 -4 -12.333 -7.33301 -19 -10c-12 -4.66699 -25 -7 -39 -7c-48 0 -80 41.667 -96 125h35c16 -54.667 37.333 -82 64 -82
c23.333 0 41.333 8 54 24c7.33301 7.33301 13.333 17 18 29c10.667 13.333 23.667 22 39 26c7.33301 2 14 3 20 3c62 0 100.333 -41.667 115 -125h-31c-12 54.667 -39 82 -81 82c-18 0 -33 -9.33301 -45 -28c-1.33301 -2.66699 -2.66602 -5 -3.99902 -7z" />
    <glyph glyph-name="Ograve" unicode="&#xd2;" horiz-adv-x="652" 
d="M306 1432c181.333 -50.667 272 -263.999 272 -639.999v-13c0 -452.667 -91 -716.334 -273 -791.001h-11c-150.667 0 -238.667 201 -264 603v176c0 379.333 83.667 601 251 665c4.66699 0.666992 9 1 13 1s8 -0.333008 12 -1zM138 679.001
c0 -348 43.665 -565.667 130.998 -653c6.66699 -3.33301 23.334 -3.33301 50.001 0c82.667 13.333 133 264.333 151 753c-25.333 398 -75.666 604 -150.999 618h-25c-91.333 6.66699 -143.333 -195 -156 -605v-113zM383.998 1575h-38l-154 218c-8 10.667 -12 20 -12 28
c0 6 1.66699 11.667 5 17c7.33301 9.33301 17.333 14 30 14c9.33301 0 18.333 -3 27 -9z" />
    <glyph glyph-name="Oacute" unicode="&#xd3;" horiz-adv-x="652" 
d="M306 1432c181.333 -50.667 272 -263.999 272 -639.999v-13c0 -452.667 -91 -716.334 -273 -791.001h-11c-150.667 0 -238.667 201 -264 603v176c0 379.333 83.667 601 251 665c4.66699 0.666992 9 1 13 1s8 -0.333008 12 -1zM138 679.001
c0 -348 43.665 -565.667 130.998 -653c6.66699 -3.33301 23.334 -3.33301 50.001 0c82.667 13.333 133 264.333 151 753c-25.333 398 -75.666 604 -150.999 618h-25c-91.333 6.66699 -143.333 -195 -156 -605v-113zM404.998 1843c8.66699 6 17.667 9 27 9
c12.667 0 22.667 -4.66699 30 -14c3.33301 -5.33301 5 -11 5 -17c0 -8 -4 -17.333 -12 -28l-154 -218h-38z" />
    <glyph glyph-name="Ocircumflex" unicode="&#xd4;" horiz-adv-x="652" 
d="M306 1432c181.333 -50.667 272 -263.999 272 -639.999v-13c0 -452.667 -91 -716.334 -273 -791.001h-11c-150.667 0 -238.667 201 -264 603v176c0 379.333 83.667 601 251 665c4.66699 0.666992 9 1 13 1s8 -0.333008 12 -1zM138 679.001
c0 -348 43.665 -565.667 130.998 -653c6.66699 -3.33301 23.334 -3.33301 50.001 0c82.667 13.333 133 264.333 151 753c-25.333 398 -75.666 604 -150.999 618h-25c-91.333 6.66699 -143.333 -195 -156 -605v-113zM164.998 1584c-8.66699 -6 -17.667 -9 -27 -9
c-12.667 0 -22.667 4.66699 -30 14c-3.33301 5.33301 -5 11 -5 17c0 8 4 17.333 12 28l154 218h42l154 -218c8 -10.667 12 -20 12 -28c0 -6 -1.66699 -11.667 -5 -17c-7.33301 -9.33301 -17.333 -14 -30 -14c-9.33301 0 -18.333 3 -27 9l-125 236z" />
    <glyph glyph-name="Otilde" unicode="&#xd5;" horiz-adv-x="652" 
d="M306 1432c181.333 -50.667 272 -263.999 272 -639.999v-13c0 -452.667 -91 -716.334 -273 -791.001h-11c-150.667 0 -238.667 201 -264 603v176c0 379.333 83.667 601 251 665c4.66699 0.666992 9 1 13 1s8 -0.333008 12 -1zM138 679.001
c0 -348 43.665 -565.667 130.998 -653c6.66699 -3.33301 23.334 -3.33301 50.001 0c82.667 13.333 133 264.333 151 753c-25.333 398 -75.666 604 -150.999 618h-25c-91.333 6.66699 -143.333 -195 -156 -605v-113zM311.998 1637c-4.66699 -8 -14.668 -17.667 -30.001 -29
c-6 -4 -12.333 -7 -19 -9c-12 -4.66699 -25 -7 -39 -7c-48 0 -80 40 -96 120h35c16 -52.667 37.333 -79 64 -79c23.333 0 41.333 8 54 24c7.33301 6.66699 13.333 15.667 18 27c10.667 13.333 23.667 22 39 26c7.33301 1.33301 14 2 20 2c62 0 100.333 -40 115 -120h-31
c-12 52 -39 78 -81 78c-18 0 -33 -8.66699 -45 -26c-1.33301 -2.66699 -2.66602 -5 -3.99902 -7z" />
    <glyph glyph-name="Odieresis" unicode="&#xd6;" horiz-adv-x="652" 
d="M306 1432c181.333 -50.667 272 -263.999 272 -639.999v-13c0 -452.667 -91 -716.334 -273 -791.001h-11c-150.667 0 -238.667 201 -264 603v176c0 379.333 83.667 601 251 665c4.66699 0.666992 9 1 13 1s8 -0.333008 12 -1zM138 679.001
c0 -348 43.665 -565.667 130.998 -653c6.66699 -3.33301 23.334 -3.33301 50.001 0c82.667 13.333 133 264.333 151 753c-25.333 398 -75.666 604 -150.999 618h-25c-91.333 6.66699 -143.333 -195 -156 -605v-113zM188.998 1712c34.667 0 52 -21.333 52 -64
c-6 -37.333 -24.667 -56 -56 -56c-20.667 0 -36.667 20 -48 60c6 40 23.333 60 52 60zM398.998 1712c34.667 0 52 -21.333 52 -64c-6 -37.333 -24.667 -56 -56 -56c-20.667 0 -36.667 20 -48 60c6 40 23.333 60 52 60z" />
    <glyph glyph-name="multiply" unicode="&#xd7;" horiz-adv-x="1196" 
 />
    <glyph glyph-name="Oslash" unicode="&#xd8;" horiz-adv-x="1593" 
 />
    <glyph glyph-name="Ugrave" unicode="&#xd9;" horiz-adv-x="460" 
d="M78 1454c32 0 48 -14.667 48 -44v-1233c0 -34.667 8.66699 -68.667 26 -102s54.333 -50 111 -50c19.333 -0.666992 29 7.33301 29 24v1360c0 30 16 45 48 45s48 -14.667 48 -44v-1311c0 -74 -45.667 -111 -137 -111c-147.333 0 -221 135 -221 405v1017
c0 29.333 16 44 48 44zM334 1570h-38l-154 218c-8 10.667 -12 20 -12 28c0 6 1.66699 11.667 5 17c7.33301 9.33301 17.333 14 30 14c9.33301 0 18.333 -3 27 -9z" />
    <glyph glyph-name="Uacute" unicode="&#xda;" horiz-adv-x="491" 
d="M78 1454c32 0 48 -14.667 48 -44v-1233c0 -34.667 8.66699 -68.667 26 -102s54.333 -50 111 -50c19.333 -0.666992 29 7.33301 29 24v1360c0 30 16 45 48 45s48 -14.667 48 -44v-1311c0 -74 -45.667 -111 -137 -111c-147.333 0 -221 135 -221 405v1017
c0 29.333 16 44 48 44zM315 1843c8.66699 6 17.667 9 27 9c12.667 0 22.667 -4.66699 30 -14c3.33301 -5.33301 5 -11 5 -17c0 -8 -4 -17.333 -12 -28l-154 -218h-38z" />
    <glyph glyph-name="Ucircumflex" unicode="&#xdb;" horiz-adv-x="460" 
d="M78 1454c32 0 48 -14.667 48 -44v-1233c0 -34.667 8.66699 -68.667 26 -102s54.333 -50 111 -50c19.333 -0.666992 29 7.33301 29 24v1360c0 30 16 45 48 45s48 -14.667 48 -44v-1311c0 -74 -45.667 -111 -137 -111c-147.333 0 -221 135 -221 405v1017
c0 29.333 16 44 48 44zM95 1584c-8.66699 -6 -17.667 -9 -27 -9c-12.667 0 -22.667 4.66699 -30 14c-3.33301 5.33301 -5 11 -5 17c0 8 4 17.333 12 28l154 218h42l154 -218c8 -10.667 12 -20 12 -28c0 -6 -1.66699 -11.667 -5 -17c-7.33301 -9.33301 -17.333 -14 -30 -14
c-9.33301 0 -18.333 3 -27 9l-125 236z" />
    <glyph glyph-name="Udieresis" unicode="&#xdc;" horiz-adv-x="460" 
d="M78 1454c32 0 48 -14.667 48 -44v-1233c0 -34.667 8.66699 -68.667 26 -102s54.333 -50 111 -50c19.333 -0.666992 29 7.33301 29 24v1360c0 30 16 45 48 45s48 -14.667 48 -44v-1311c0 -74 -45.667 -111 -137 -111c-147.333 0 -221 135 -221 405v1017
c0 29.333 16 44 48 44zM104 1712c34.667 0 52 -21.333 52 -64c-6 -37.333 -24.667 -56 -56 -56c-20.667 0 -36.667 20 -48 60c6 40 23.333 60 52 60zM314 1712c34.667 0 52 -21.333 52 -64c-6 -37.333 -24.667 -56 -56 -56c-20.667 0 -36.667 20 -48 60
c6 40 23.333 60 52 60z" />
    <glyph glyph-name="Yacute" unicode="&#xdd;" horiz-adv-x="531" 
d="M214 485c-59.333 75.333 -120.668 381.667 -184.001 919l38 25c30.667 -8 54.667 -99.667 72 -275c10.667 -106 49.334 -288.667 116.001 -548c10 -30.667 20.333 -30.667 31 0l150 810h13l12 -12h13c-59.333 -464.667 -114.333 -755 -165 -871v-458
c0 -50 -11.667 -75 -35 -75h-24c-24.667 0 -37 25 -37 75v410zM270.998 1838c8.66699 6 17.667 9 27 9c12.667 0 22.667 -4.66699 30 -14c3.33301 -5.33301 5 -11 5 -17c0 -8 -4 -17.333 -12 -28l-154 -218h-38z" />
    <glyph glyph-name="germandbls" unicode="&#xdf;" horiz-adv-x="1251" 
 />
    <glyph glyph-name="agrave" unicode="&#xe0;" 
d="M213 1044c116 0 184 -88 204 -264v-720c-36 -48 -88 -72 -156 -72h-24c-112 0 -180 96 -204 288c0 148 96 296 288 444v96c0 94 -48 166 -144 216l12 12h24zM297 648c-104 -118 -156 -250 -156 -396c26 -144 74 -216 144 -216l36 36v576h-24zM322 1201h-38l-154 218
c-8 10.667 -12 20 -12 28c0 6 1.66699 11.667 5 17c7.33301 9.33301 17.333 14 30 14c9.33301 0 18.333 -3 27 -9z" />
    <glyph glyph-name="aacute" unicode="&#xe1;" 
d="M210 1044c116 0 184 -88 204 -264v-720c-36 -48 -88 -72 -156 -72h-24c-112 0 -180 96 -204 288c0 148 96 296 288 444v96c0 94 -48 166 -144 216l12 12h24zM294 648c-104 -118 -156 -250 -156 -396c26 -144 74 -216 144 -216l36 36v576h-24zM235 1469
c8.66699 6 17.667 9 27 9c12.667 0 22.667 -4.66699 30 -14c3.33301 -5.33301 5 -11 5 -17c0 -8 -4 -17.333 -12 -28l-154 -218h-38z" />
    <glyph glyph-name="acircumflex" unicode="&#xe2;" 
d="M210 1044c116 0 184 -88 204 -264v-720c-36 -48 -88 -72 -156 -72h-24c-112 0 -180 96 -204 288c0 148 96 296 288 444v96c0 94 -48 166 -144 216l12 12h24zM294 648c-104 -118 -156 -250 -156 -396c26 -144 74 -216 144 -216l36 36v576h-24zM107 1210
c-8.66699 -6 -17.667 -9 -27 -9c-12.667 0 -22.667 4.66699 -30 14c-3.33301 5.33301 -5 11 -5 17c0 8 4 17.333 12 28l154 218h42l154 -218c8 -10.667 12 -20 12 -28c0 -6 -1.66699 -11.667 -5 -17c-7.33301 -9.33301 -17.333 -14 -30 -14c-9.33301 0 -18.333 3 -27 9
l-125 236z" />
    <glyph glyph-name="atilde" unicode="&#xe3;" 
d="M210 1044c116 0 184 -88 204 -264v-720c-36 -48 -88 -72 -156 -72h-24c-112 0 -180 96 -204 288c0 148 96 296 288 444v96c0 94 -48 166 -144 216l12 12h24zM294 648c-104 -118 -156 -250 -156 -396c26 -144 74 -216 144 -216l36 36v576h-24zM243 1208
c-4.66699 -8 -14.668 -17.667 -30.001 -29c-6 -4 -12.333 -7 -19 -9c-12 -4.66699 -25 -7 -39 -7c-48 0 -80 40 -96 120h35c16 -52.667 37.333 -79 64 -79c23.333 0 41.333 8 54 24c7.33301 6.66699 13.333 15.667 18 27c10.667 13.333 23.667 22 39 26
c7.33301 1.33301 14 2 20 2c62 0 100.333 -40 115 -120h-31c-12 52 -39 78 -81 78c-18 0 -33 -8.66699 -45 -26c-1.33301 -2.66699 -2.66602 -5 -3.99902 -7z" />
    <glyph glyph-name="adieresis" unicode="&#xe4;" 
d="M210 1044c116 0 184 -88 204 -264v-720c-36 -48 -88 -72 -156 -72h-24c-112 0 -180 96 -204 288c0 148 96 296 288 444v96c0 94 -48 166 -144 216l12 12h24zM294 648c-104 -118 -156 -250 -156 -396c26 -144 74 -216 144 -216l36 36v576h-24zM139 1325
c34.667 0 52 -21.333 52 -64c-6 -37.333 -24.667 -56 -56 -56c-20.667 0 -36.667 20 -48 60c6 40 23.333 60 52 60zM349 1325c34.667 0 52 -21.333 52 -64c-6 -37.333 -24.667 -56 -56 -56c-20.667 0 -36.667 20 -48 60c6 40 23.333 60 52 60z" />
    <glyph glyph-name="aring" unicode="&#xe5;" 
d="M210 1044c116 0 184 -88 204 -264v-720c-36 -48 -88 -72 -156 -72h-24c-112 0 -180 96 -204 288c0 148 96 296 288 444v96c0 94 -48 166 -144 216l12 12h24zM294 648c-104 -118 -156 -250 -156 -396c26 -144 74 -216 144 -216l36 36v576h-24zM189 1278
c0 -33.333 13 -50 39 -50c30 0 45 15.667 45 47c0 35.333 -14 53 -42 53s-42 -16.667 -42 -50zM231 1362c48.667 0 73 -30 73 -90c0 -52 -26.333 -78 -79 -78c-44.667 0 -67 28 -67 84s24.333 84 73 84z" />
    <glyph glyph-name="ae" unicode="&#xe6;" horiz-adv-x="1821" 
 />
    <glyph glyph-name="ccedilla" unicode="&#xe7;" horiz-adv-x="408" 
d="M186 0l-13 -0.000976562c-56 0 -103.667 196.667 -143 590v25c0 241.333 100.333 388 301 440v-13c-142 -68.667 -213 -181.667 -213 -339v-125c0 -147.333 54.333 -340 163 -578h-20c22.667 -22.667 34 -57 34 -103c0 -75.333 -29.333 -131.666 -88 -168.999h-38l-35 26
v12c67.333 36.667 101 74.334 101 113.001c0 55.333 -16.333 95.666 -49 120.999z" />
    <glyph glyph-name="egrave" unicode="&#xe8;" 
d="M270 1044c66 0 110 -64 132 -192c0 -120 -88 -256 -264 -408c36 -156 92 -300 168 -432l-12 -12h-96c-112 164 -168 384 -168 660c0 208 72 336 216 384h24zM126 720v-204c80 48 140 156 180 324v36c-10 80 -26 120 -48 120c-16.667 2.66699 -28.667 2.66699 -36 0
c-64 -44 -96 -136 -96 -276zM346 1201h-38l-154 218c-8 10.667 -12 20 -12 28c0 6 1.66699 11.667 5 17c7.33301 9.33301 17.333 14 30 14c9.33301 0 18.333 -3 27 -9z" />
    <glyph glyph-name="eacute" unicode="&#xe9;" 
d="M270 1044c66 0 110 -64 132 -192c0 -120 -88 -256 -264 -408c36 -156 92 -300 168 -432l-12 -12h-96c-112 164 -168 384 -168 660c0 208 72 336 216 384h24zM126 720v-204c80 48 140 156 180 324v36c-10 80 -26 120 -48 120c-16.667 2.66699 -28.667 2.66699 -36 0
c-64 -44 -96 -136 -96 -276zM360 1469c8.66699 6 17.667 9 27 9c12.667 0 22.667 -4.66699 30 -14c3.33301 -5.33301 5 -11 5 -17c0 -8 -4 -17.333 -12 -28l-154 -218h-38z" />
    <glyph glyph-name="ecircumflex" unicode="&#xea;" 
d="M270 1044c66 0 110 -64 132 -192c0 -120 -88 -256 -264 -408c36 -156 92 -300 168 -432l-12 -12h-96c-112 164 -168 384 -168 660c0 208 72 336 216 384h24zM126 720v-204c80 48 140 156 180 324v36c-10 80 -26 120 -48 120c-16.667 2.66699 -28.667 2.66699 -36 0
c-64 -44 -96 -136 -96 -276zM123 1210c-8.66699 -6 -17.667 -9 -27 -9c-12.667 0 -22.667 4.66699 -30 14c-3.33301 5.33301 -5 11 -5 17c0 8 4 17.333 12 28l154 218h42l154 -218c8 -10.667 12 -20 12 -28c0 -6 -1.66699 -11.667 -5 -17
c-7.33301 -9.33301 -17.333 -14 -30 -14c-9.33301 0 -18.333 3 -27 9l-125 236z" />
    <glyph glyph-name="edieresis" unicode="&#xeb;" 
d="M270 1044c66 0 110 -64 132 -192c0 -120 -88 -256 -264 -408c36 -156 92 -300 168 -432l-12 -12h-96c-112 164 -168 384 -168 660c0 208 72 336 216 384h24zM126 720v-204c80 48 140 156 180 324v36c-10 80 -26 120 -48 120c-16.667 2.66699 -28.667 2.66699 -36 0
c-64 -44 -96 -136 -96 -276zM121 1320c34.667 0 52 -21.333 52 -64c-6 -37.333 -24.667 -56 -56 -56c-20.667 0 -36.667 20 -48 60c6 40 23.333 60 52 60zM331 1320c34.667 0 52 -21.333 52 -64c-6 -37.333 -24.667 -56 -56 -56c-20.667 0 -36.667 20 -48 60
c6 40 23.333 60 52 60z" />
    <glyph glyph-name="igrave" unicode="&#xec;" horiz-adv-x="204" 
d="M54 1044h48c16 0 24 -8 24 -24v-1004c0 -10.667 -4.33301 -16 -13 -16h-55c-18.667 -0 -28 9.33301 -28 28v1000c2.66699 10.667 10.667 16 24 16zM152 1201h-38.001l-154 218c-8 10.667 -12 20 -12 28c0 6 2 11.667 6 17c6.66699 9.33301 16.334 14 29.001 14
c9.33301 0 18.333 -3 27 -9z" />
    <glyph glyph-name="iacute" unicode="&#xed;" horiz-adv-x="204" 
d="M54 1044h48c16 0 24 -8 24 -24v-1004c0 -10.667 -4.33301 -16 -13 -16h-55c-18.667 -0 -28 9.33301 -28 28v1000c2.66699 10.667 10.667 16 24 16zM136 1469c8.66699 6 17.667 9 27 9c12.667 0 22.667 -4.66699 30 -14c3.33301 -5.33301 5 -11 5 -17
c0 -8 -4 -17.333 -12 -28l-154 -218h-38z" />
    <glyph glyph-name="icircumflex" unicode="&#xee;" horiz-adv-x="204" 
d="M75 1044h48c16 0 24 -8 24 -24v-1004c0 -10.667 -4.33301 -16 -13 -16h-55c-18.667 -0 -28 9.33301 -28 28v1000c2.66699 10.667 10.667 16 24 16zM14 1210c-7.33301 -6 -14.667 -9 -22 -9c-10 0 -18 4.66699 -24 14c-2.66699 5.33301 -4 11 -4 17
c0 8 3.33301 17.333 10 28l123 218h33l124 -218c6 -10.667 9 -20 9 -28c0 -6 -1.33301 -11.667 -4 -17c-6 -9.33301 -14 -14 -24 -14c-7.33301 0 -14.333 3 -21 9l-100 236z" />
    <glyph glyph-name="idieresis" unicode="&#xef;" horiz-adv-x="204" 
d="M54 1044h48c16 0 24 -8 24 -24v-1004c0 -10.667 -4.33301 -16 -13 -16h-55c-18.667 -0 -28 9.33301 -28 28v1000c2.66699 10.667 10.667 16 24 16zM-43 1326c34.667 0 52 -21.333 52 -64c-6 -37.333 -24.667 -56 -56 -56c-20.667 0 -36.667 20 -48 60
c6 40 23.333 60 52 60zM167 1326c34.667 0 52 -21.333 52 -64c-6 -37.333 -24.667 -56 -56 -56c-20.667 0 -36.667 20 -48 60c6 40 23.333 60 52 60z" />
    <glyph glyph-name="eth" unicode="&#xf0;" horiz-adv-x="1139" 
 />
    <glyph glyph-name="ntilde" unicode="&#xf1;" horiz-adv-x="600" 
d="M180 1020c-33.333 -22 -50 -59.667 -50 -113v-883c0 -16 -8.66699 -24 -26 -24h-70v895l-4 87c58 34.667 108 57 150 67c18 4.66699 34.333 7 49 7c110.667 0 177.334 -157.333 200.001 -472c10.667 -124 38 -315.333 82 -574v-1c0 -6 -4.33301 -9 -13 -9h-83
c-32 -0 -60.667 244.333 -86 733c-18.667 191.333 -68.334 287 -149.001 287zM179 1242c-4.66699 -6.66699 -14.667 -14.999 -30 -24.999c-6 -3.33301 -12.333 -6 -19 -8c-12 -4 -25 -6 -39 -6c-48 0 -80 34.667 -96 104h35c16 -45.333 37.333 -68 64 -68
c23.333 0 41.333 6.66699 54 20c7.33301 6 13.333 14 18 24c10.667 11.333 23.667 18.666 39 21.999c7.33301 1.33301 14 2 20 2c62 0 100.333 -34.667 115 -104h-31c-12 45.333 -39 68 -81 68c-18 0 -33 -7.66699 -45 -23z" />
    <glyph glyph-name="ograve" unicode="&#xf2;" horiz-adv-x="624" 
d="M266 1045c133.333 0 206.667 -170 220 -510v-50c0 -294.667 -77.333 -464.667 -232 -510h-13c-122.667 0 -193 141 -211 423v174c0 258.667 66.333 412 199 460zM138.001 510c12.667 -332 55.333 -498 128 -498h13c49.333 0 82.333 161.667 99 485v25
c-16.667 324 -54 486 -112 486h-37c-44 -8 -74.333 -174 -91 -498zM386 1201h-38l-154 218c-8 10.667 -12 20 -12 28c0 6 1.66699 11.667 5 17c7.33301 9.33301 17.333 14 30 14c9.33301 0 18.333 -3 27 -9z" />
    <glyph glyph-name="oacute" unicode="&#xf3;" horiz-adv-x="624" 
d="M266 1045c133.333 0 206.667 -170 220 -510v-50c0 -294.667 -77.333 -464.667 -232 -510h-13c-122.667 0 -193 141 -211 423v174c0 258.667 66.333 412 199 460zM138.001 510c12.667 -332 55.333 -498 128 -498h13c49.333 0 82.333 161.667 99 485v25
c-16.667 324 -54 486 -112 486h-37c-44 -8 -74.333 -174 -91 -498zM360 1469c8.66699 6 17.667 9 27 9c12.667 0 22.667 -4.66699 30 -14c3.33301 -5.33301 5 -11 5 -17c0 -8 -4 -17.333 -12 -28l-154 -218h-38z" />
    <glyph glyph-name="ocircumflex" unicode="&#xf4;" horiz-adv-x="624" 
d="M266 1045c133.333 0 206.667 -170 220 -510v-50c0 -294.667 -77.333 -464.667 -232 -510h-13c-122.667 0 -193 141 -211 423v174c0 258.667 66.333 412 199 460zM138.001 510c12.667 -332 55.333 -498 128 -498h13c49.333 0 82.333 161.667 99 485v25
c-16.667 324 -54 486 -112 486h-37c-44 -8 -74.333 -174 -91 -498zM115 1210c-8.66699 -6 -17.667 -9 -27 -9c-12.667 0 -22.667 4.66699 -30 14c-3.33301 5.33301 -5 11 -5 17c0 8 4 17.333 12 28l154 218h42l154 -218c8 -10.667 12 -20 12 -28
c0 -6 -1.66699 -11.667 -5 -17c-7.33301 -9.33301 -17.333 -14 -30 -14c-9.33301 0 -18.333 3 -27 9l-125 236z" />
    <glyph glyph-name="otilde" unicode="&#xf5;" horiz-adv-x="624" 
d="M266 1045c133.333 0 206.667 -170 220 -510v-50c0 -294.667 -77.333 -464.667 -232 -510h-13c-122.667 0 -193 141 -211 423v174c0 258.667 66.333 412 199 460zM138.001 510c12.667 -332 55.333 -498 128 -498h13c49.333 0 82.333 161.667 99 485v25
c-16.667 324 -54 486 -112 486h-37c-44 -8 -74.333 -174 -91 -498zM250 1244c-4.66699 -8 -14.668 -18 -30.001 -30c-6 -4 -12.333 -7.33301 -19 -10c-12 -4.66699 -25 -7 -39 -7c-48 0 -80 41.667 -96 125h35c16 -54.667 37.333 -82 64 -82c23.333 0 41.333 8 54 24
c7.33301 7.33301 13.333 17 18 29c10.667 13.333 23.667 22 39 26c7.33301 2 14 3 20 3c62 0 100.333 -41.667 115 -125h-31c-12 54.667 -39 82 -81 82c-18 0 -33 -9.33301 -45 -28c-1.33301 -2.66699 -2.66602 -5 -3.99902 -7z" />
    <glyph glyph-name="odieresis" unicode="&#xf6;" horiz-adv-x="624" 
d="M266 1045c133.333 0 206.667 -170 220 -510v-50c0 -294.667 -77.333 -464.667 -232 -510h-13c-122.667 0 -193 141 -211 423v174c0 258.667 66.333 412 199 460zM138.001 510c12.667 -332 55.333 -498 128 -498h13c49.333 0 82.333 161.667 99 485v25
c-16.667 324 -54 486 -112 486h-37c-44 -8 -74.333 -174 -91 -498zM141 1314c34.667 0 52 -21.333 52 -64c-6 -37.333 -24.667 -56 -56 -56c-20.667 0 -36.667 20 -48 60c6 40 23.333 60 52 60zM351 1314c34.667 0 52 -21.333 52 -64c-6 -37.333 -24.667 -56 -56 -56
c-20.667 0 -36.667 20 -48 60c6 40 23.333 60 52 60z" />
    <glyph glyph-name="divide" unicode="&#xf7;" horiz-adv-x="1124" 
 />
    <glyph glyph-name="oslash" unicode="&#xf8;" horiz-adv-x="1251" 
 />
    <glyph glyph-name="ugrave" unicode="&#xf9;" horiz-adv-x="507" 
d="M78 1044c32 0 48 -14.667 48 -44v-823c0 -34.667 8.66699 -68.667 26 -102s54.333 -50 111 -50c19.333 -0.666992 29 7.33301 29 24v950c0 30 16 45 48 45s48 -14.667 48 -44v-901c0 -74 -45.667 -111 -137 -111c-147.333 0 -221 135 -221 405v607c0 29.333 16 44 48 44z
M329 1201h-38l-154 218c-8 10.667 -12 20 -12 28c0 6 1.66699 11.667 5 17c7.33301 9.33301 17.333 14 30 14c9.33301 0 18.333 -3 27 -9z" />
    <glyph glyph-name="uacute" unicode="&#xfa;" horiz-adv-x="507" 
d="M78 1044c32 0 48 -14.667 48 -44v-823c0 -34.667 8.66699 -68.667 26 -102s54.333 -50 111 -50c19.333 -0.666992 29 7.33301 29 24v950c0 30 16 45 48 45s48 -14.667 48 -44v-901c0 -74 -45.667 -111 -137 -111c-147.333 0 -221 135 -221 405v607c0 29.333 16 44 48 44z
M252 1469c8.66699 6 17.667 9 27 9c12.667 0 22.667 -4.66699 30 -14c3.33301 -5.33301 5 -11 5 -17c0 -8 -4 -17.333 -12 -28l-154 -218h-38z" />
    <glyph glyph-name="ucircumflex" unicode="&#xfb;" horiz-adv-x="507" 
d="M78 1044c32 0 48 -14.667 48 -44v-823c0 -34.667 8.66699 -68.667 26 -102s54.333 -50 111 -50c19.333 -0.666992 29 7.33301 29 24v950c0 30 16 45 48 45s48 -14.667 48 -44v-901c0 -74 -45.667 -111 -137 -111c-147.333 0 -221 135 -221 405v607c0 29.333 16 44 48 44z
M93 1210c-8.66699 -6 -17.667 -9 -27 -9c-12.667 0 -22.667 4.66699 -30 14c-3.33301 5.33301 -5 11 -5 17c0 8 4 17.333 12 28l154 218h42l154 -218c8 -10.667 12 -20 12 -28c0 -6 -1.66699 -11.667 -5 -17c-7.33301 -9.33301 -17.333 -14 -30 -14
c-9.33301 0 -18.333 3 -27 9l-125 236z" />
    <glyph glyph-name="udieresis" unicode="&#xfc;" horiz-adv-x="507" 
d="M78 1044c32 0 48 -14.667 48 -44v-823c0 -34.667 8.66699 -68.667 26 -102s54.333 -50 111 -50c19.333 -0.666992 29 7.33301 29 24v950c0 30 16 45 48 45s48 -14.667 48 -44v-901c0 -74 -45.667 -111 -137 -111c-147.333 0 -221 135 -221 405v607c0 29.333 16 44 48 44z
M100 1320c34.667 0 52 -21.333 52 -64c-6 -37.333 -24.667 -56 -56 -56c-20.667 0 -36.667 20 -48 60c6 40 23.333 60 52 60zM310 1320c34.667 0 52 -21.333 52 -64c-6 -37.333 -24.667 -56 -56 -56c-20.667 0 -36.667 20 -48 60c6 40 23.333 60 52 60z" />
    <glyph glyph-name="yacute" unicode="&#xfd;" horiz-adv-x="600" 
d="M67 1034h13.001c41.333 0 62 -165.667 62 -497c24.667 -348 62 -522 112 -522h12c43.333 0 76.333 236.333 99 709c12.667 206.667 33.667 310 63 310h12l37 -37h13c-64.667 -820 -122.667 -1230 -174 -1230c-44 -85.333 -98 -143.666 -162 -174.999v25
c91.333 97.333 137 217.666 137 360.999h-13c-148.667 0 -226.334 203 -233.001 609l-15 423zM254.001 1469c8.66699 6 17.667 9 27 9c12.667 0 22.667 -4.66699 30 -14c3.33301 -5.33301 5 -11 5 -17c0 -8 -4 -17.333 -12 -28l-154 -218h-38z" />
    <glyph glyph-name="ydieresis" unicode="&#xff;" horiz-adv-x="600" 
d="M67 1034h13.001c41.333 0 62 -165.667 62 -497c24.667 -348 62 -522 112 -522h12c43.333 0 76.333 236.333 99 709c12.667 206.667 33.667 310 63 310h12l37 -37h13c-64.667 -820 -122.667 -1230 -174 -1230c-44 -85.333 -98 -143.666 -162 -174.999v25
c91.333 97.333 137 217.666 137 360.999h-13c-148.667 0 -226.334 203 -233.001 609l-15 423zM163.001 1326c34.667 0 52 -21.333 52 -64c-6 -37.333 -24.667 -56 -56 -56c-20.667 0 -36.667 20 -48 60c6 40 23.333 60 52 60zM373.001 1326c34.667 0 52 -21.333 52 -64
c-6 -37.333 -24.667 -56 -56 -56c-20.667 0 -36.667 20 -48 60c6 40 23.333 60 52 60z" />
    <glyph glyph-name="Abreve" unicode="&#x102;" horiz-adv-x="402" 
d="M123 395v-337c0 -40.667 -16 -61 -48 -61s-48 22.667 -48 68v983c2 107.333 21 204.666 57 291.999c25.333 62 54.333 102.667 87 122c14 8 25 12 33 12c7.33301 0 18.333 -4 33 -12c12.667 -19.333 32 -54 58 -104c35.333 -99.333 54 -202.666 56 -309.999v-983
c0 -45.333 -6 -68 -18 -68c-32 0 -48 20.333 -48 61v337h-162zM285 456v506h-1v124c0 93.333 -26.667 189.666 -80 288.999c-53.333 -99.333 -80 -195.666 -80 -288.999v-124h-1v-506h162zM146 1701c10.667 -45.333 25 -68 43 -68c28 0 46 22.667 54 68h21
c-10 -69.333 -35.667 -104 -77 -104c-32 0 -53.333 34.667 -64 104h23z" />
    <glyph glyph-name="abreve" unicode="&#x103;" 
d="M210 1044c116 0 184 -88 204 -264v-720c-36 -48 -88 -72 -156 -72h-24c-112 0 -180 96 -204 288c0 148 96 296 288 444v96c0 94 -48 166 -144 216l12 12h24zM294 648c-104 -118 -156 -250 -156 -396c26 -144 74 -216 144 -216l36 36v576h-24zM215 1305
c10.667 -45.333 25 -68 43 -68c28 0 46 22.667 54 68h21c-10 -69.333 -35.667 -104 -77 -104c-32 0 -53.333 34.667 -64 104h23z" />
    <glyph glyph-name="Aogonek" unicode="&#x104;" horiz-adv-x="425" 
d="M285 456v506h-1v124c0 93.333 -26.667 189.666 -80 288.999c-53.333 -99.333 -80 -195.666 -80 -288.999v-124h-1v-506h162zM289 28c-2.66699 8.66699 -4 18.668 -4 30.001v337h-162v-337c0 -40.667 -16 -61 -48 -61s-48 22.667 -48 68v983
c2 107.333 21 204.666 57 291.999c25.333 62 54.333 102.667 87 122c14 8 25 12 33 12c7.33301 0 18.333 -4 33 -12c12.667 -19.333 32 -54 58 -104c35.333 -99.333 54 -202.666 56 -309.999v-983c0 -41.333 -5 -63.666 -15 -66.999c-30.667 -25.333 -46 -65 -46 -119
c0 -38.667 33.667 -76.334 101 -113.001v-12l-35 -26h-38c-58.667 37.333 -88 93.666 -88 168.999c0 46 11.333 80.333 34 103z" />
    <glyph glyph-name="aogonek" unicode="&#x105;" horiz-adv-x="507" 
d="M206 1047c124 0 193.669 -121.332 209.002 -363.999v-591c0 -33.333 -32 -83.333 -96 -150l-13 -63c5.33301 -30 39 -67.667 101 -113v-12l-25 -26h-38c-58.667 37.333 -88 83.666 -88 138.999l13 100c-128.667 0 -208.334 96.333 -239.001 289
c0 123.333 96.333 278 289 464v126c-10.667 108.667 -48.334 163 -113.001 163v38zM143.002 356.001l-0.000976562 -163c0 -82 37.667 -145 113 -189h25l38 38v603h-25c-95.333 -98.667 -145.666 -195 -150.999 -289z" />
    <glyph glyph-name="Cacute" unicode="&#x106;" horiz-adv-x="507" 
d="M398 1436l24.001 -24.001v-12l-12 -12c-110.667 -51.333 -181.334 -114 -212.001 -188c-48 -96 -72 -220 -72 -372c0 -238.667 80 -510.667 240 -816l-12 -12h-96c-96 113.333 -172 345.333 -228 696c-2 26 -3 52 -3 78s1 52 3 78c0 270.667 110.667 465.334 332 584.001
h36zM413.001 1838c8.66699 6 17.667 9 27 9c12.667 0 22.667 -4.66699 30 -14c3.33301 -5.33301 5 -11 5 -17c0 -8 -4 -17.333 -12 -28l-154 -218h-38z" />
    <glyph glyph-name="cacute" unicode="&#x107;" horiz-adv-x="408" 
d="M331 1055v-13c-142 -68.667 -213 -181.667 -213 -339v-125c0 -147.333 54.333 -340 163 -578h-108c-56 0 -103.667 196.667 -143 590v25c0 241.333 100.333 388 301 440zM317 1469c8.66699 6 17.667 9 27 9c12.667 0 22.667 -4.66699 30 -14
c3.33301 -5.33301 5 -11 5 -17c0 -8 -4 -17.333 -12 -28l-154 -218h-38z" />
    <glyph glyph-name="Ccaron" unicode="&#x10c;" horiz-adv-x="507" 
d="M398 1436l24.001 -24.001v-12l-12 -12c-110.667 -51.333 -181.334 -114 -212.001 -188c-48 -96 -72 -220 -72 -372c0 -238.667 80 -510.667 240 -816l-12 -12h-96c-96 113.333 -172 345.333 -228 696c-2 26 -3 52 -3 78s1 52 3 78c0 270.667 110.667 465.334 332 584.001
h36zM318.001 1602l125 236c8.66699 6 17.667 9 27 9c12.667 0 22.667 -4.66699 30 -14c3.33301 -5.33301 5 -11 5 -17c0 -8 -4 -17.333 -12 -28l-154 -218h-42l-154 218c-8 10.667 -12 20 -12 28c0 6 1.66699 11.667 5 17c7.33301 9.33301 17.333 14 30 14
c9.33301 0 18.333 -3 27 -9z" />
    <glyph glyph-name="ccaron" unicode="&#x10d;" horiz-adv-x="408" 
d="M331 1055v-13c-142 -68.667 -213 -181.667 -213 -339v-125c0 -147.333 54.333 -340 163 -578h-108c-56 0 -103.667 196.667 -143 590v25c0 241.333 100.333 388 301 440zM227 1224l125 236c8.66699 6 17.667 9 27 9c12.667 0 22.667 -4.66699 30 -14
c3.33301 -5.33301 5 -11 5 -17c0 -8 -4 -17.333 -12 -28l-154 -218h-42l-154 218c-8 10.667 -12 20 -12 28c0 6 1.66699 11.667 5 17c7.33301 9.33301 17.333 14 30 14c9.33301 0 18.333 -3 27 -9z" />
    <glyph glyph-name="Dcaron" unicode="&#x10e;" horiz-adv-x="594" 
d="M231 1432c150.667 0 242.667 -142.334 276 -427.001v-163c0 -343.333 -125.667 -619.666 -377 -828.999l-75 -13l-25 38v1256c0 62.667 67 108.667 201 138zM126 1198l0.000976562 -1135c175.333 163.333 263 423 263 779v125c-18.667 278 -81.334 417 -188.001 417
c-50 0 -75 -62 -75 -186zM197.001 1603l125 236c8.66699 6 17.667 9 27 9c12.667 0 22.667 -4.66699 30 -14c3.33301 -5.33301 5 -11 5 -17c0 -8 -4 -17.333 -12 -28l-154 -218h-42l-154 218c-8 10.667 -12 20 -12 28c0 6 1.66699 11.667 5 17
c7.33301 9.33301 17.333 14 30 14c9.33301 0 18.333 -3 27 -9z" />
    <glyph glyph-name="dcaron" unicode="&#x10f;" horiz-adv-x="606" 
d="M342 1473h36l36 -24v-1401c-50 -40 -90 -60 -120 -60h-72c-110 0 -174 120 -192 360v48c0 258 96 474 288 648v405zM138 432v-60c0 -232 48 -348 144 -348c24 30 36 58 36 84v864c-120 -114 -180 -294 -180 -540zM620 1469c8.66699 6 17.667 9 27 9
c12.667 0 22.667 -4.66699 30 -14c3.33301 -5.33301 5 -11 5 -17c0 -8 -4 -17.333 -12 -28l-154 -218h-38z" />
    <glyph glyph-name="Dcroat" unicode="&#x110;" horiz-adv-x="670" 
d="M186 693l0.000976562 -630c175.333 163.333 263 423 263 779v125c-18.667 278 -81.334 417 -188.001 417c-50 0 -75 -62 -75 -186v-444h116c4 0 6 -10.333 6 -31c0 -20 -2 -30 -6 -30h-116zM90.001 754v539.999c0 62.667 67 108.667 201 138
c150.667 0 242.667 -142.333 276 -427v-163c0 -343.333 -125.667 -619.666 -377 -828.999l-75 -13l-25 38v655h-69c-8.66699 0 -13 10 -13 30c0 20.667 4.66699 31 14 31h68z" />
    <glyph glyph-name="dcroat" unicode="&#x111;" horiz-adv-x="594" 
d="M138 432v-60c0 -232 48 -348 144 -348c24 30 36 58 36 84v864c-120 -114 -180 -294 -180 -540zM318 1264v185l24 24h36l36 -24v-185h88c4 0 6 -10.333 6 -31c0 -20 -2 -30 -6 -30h-88v-1155c-50 -40 -90 -60 -120 -60h-72c-110 0 -174 120 -192 360v48
c0 258 96 474 288 648v159h-97c-8.66699 0 -13 10 -13 30c0 20.667 4.66699 31 14 31h96z" />
    <glyph glyph-name="Eogonek" unicode="&#x118;" horiz-adv-x="507" 
d="M258 0c-96 113.333 -172 345.333 -228 696c-2 26 -3 52 -3 78s1 52 3 78c0 270.667 110.667 465.334 332 584.001h36l24 -24v-12l-12 -12c-110.667 -51.333 -181.334 -114 -212.001 -188c-39.333 -79.333 -62.666 -178.666 -69.999 -297.999h204v-60h-206v-14
c0 -238.667 80 -510.667 240 -816l-12 -12c-14 0 -29.167 -6.33301 -45.5 -19s-24.5 -46.667 -24.5 -102c0 -38.667 33.667 -76.334 101 -113.001v-12l-35 -26h-38c-58.667 37.333 -88 93.666 -88 168.999c0 46 11.333 80.333 34 103z" />
    <glyph glyph-name="eogonek" unicode="&#x119;" 
d="M126 720v-204c80 48 140 156 180 324v36c-10 80 -26 120 -48 120c-16.667 2.66699 -28.667 2.66699 -36 0c-64 -44 -96 -136 -96 -276zM199 0l-1.00098 0.00195312c-112 164 -168 384 -168 660c0 208 72 336 216 384h24c66 0 110 -64 132 -192c0 -120 -88 -256 -264 -408
c36 -156 92 -300 168 -432l-12 -12c-13.333 0 -28.166 -6.33301 -44.499 -19s-24.5 -46.667 -24.5 -102c0 -38.667 33.667 -76.334 101 -113.001v-12l-35 -26h-38c-58.667 37.333 -88 93.666 -88 168.999c0 46 11.333 80.333 34 103z" />
    <glyph glyph-name="Ecaron" unicode="&#x11a;" horiz-adv-x="507" 
d="M126 842v-14.002c0 -238.667 80 -510.667 240 -816l-12 -12h-96c-96 113.333 -172 345.333 -228 696c-2 26 -3 52 -3 78s1 52 3 78c0 270.667 110.667 465.334 332 584.001h36l24 -24v-12l-12 -12c-110.667 -51.333 -181.334 -114 -212.001 -188
c-39.333 -79.333 -62.666 -178.666 -69.999 -297.999h204v-60h-206zM288 1603l125 236c8.66699 6 17.667 9 27 9c12.667 0 22.667 -4.66699 30 -14c3.33301 -5.33301 5 -11 5 -17c0 -8 -4 -17.333 -12 -28l-154 -218h-42l-154 218c-8 10.667 -12 20 -12 28
c0 6 1.66699 11.667 5 17c7.33301 9.33301 17.333 14 30 14c9.33301 0 18.333 -3 27 -9z" />
    <glyph glyph-name="ecaron" unicode="&#x11b;" 
d="M270 1044c66 0 110 -64 132 -192c0 -120 -88 -256 -264 -408c36 -156 92 -300 168 -432l-12 -12h-96c-112 164 -168 384 -168 660c0 208 72 336 216 384h24zM126 720v-204c80 48 140 156 180 324v36c-10 80 -26 120 -48 120c-16.667 2.66699 -28.667 2.66699 -36 0
c-64 -44 -96 -136 -96 -276zM229 1231l125 236c8.66699 6 17.667 9 27 9c12.667 0 22.667 -4.66699 30 -14c3.33301 -5.33301 5 -11 5 -17c0 -8 -4 -17.333 -12 -28l-154 -218h-42l-154 218c-8 10.667 -12 20 -12 28c0 6 1.66699 11.667 5 17
c7.33301 9.33301 17.333 14 30 14c9.33301 0 18.333 -3 27 -9z" />
    <glyph glyph-name="dotlessi" unicode="&#x131;" horiz-adv-x="204" 
d="M74 1044h48c16 0 24 -8 24 -24v-1004c0 -10.667 -4.33301 -16 -13 -16h-55c-18.667 -0 -28 9.33301 -28 28v1000c2.66699 10.667 10.667 16 24 16z" />
    <glyph glyph-name="Lacute" unicode="&#x139;" horiz-adv-x="437" 
d="M30 42v1372c0 40.667 16 61 48 61s48 -22.667 48 -68v-1322l1 -24h244c18 0 27 -10.333 27 -31c0 -20 -9 -30 -27 -30h-304l-1 1c-26 3.33301 -39 13 -39 29c0 4.66699 1 8.66699 3 12zM177 1841c8.66699 6 17.667 9 27 9c12.667 0 22.667 -4.66699 30 -14
c3.33301 -5.33301 5 -11 5 -17c0 -8 -4 -17.333 -12 -28l-154 -218h-38z" />
    <glyph glyph-name="lacute" unicode="&#x13a;" horiz-adv-x="227" 
d="M98 1475c32 0 48 -22.667 48 -68v-1322l2 -61l-37 -24h-24l-37 37v1377c0 40.667 16 61 48 61zM166 1845c8.66699 6 17.667 9 27 9c12.667 0 22.667 -4.66699 30 -14c3.33301 -5.33301 5 -11 5 -17c0 -8 -4 -17.333 -12 -28l-154 -218h-38z" />
    <glyph glyph-name="Lcaron" unicode="&#x13d;" 
d="M30 42v1372c0 40.667 16 61 48 61s48 -22.667 48 -68v-1322l1 -24h244c18 0 27 -10.333 27 -31c0 -20 -9 -30 -27 -30h-304l-1 1c-26 3.33301 -39 13 -39 29c0 4.66699 1 8.66699 3 12zM340 1469c8.66699 6 17.667 9 27 9c12.667 0 22.667 -4.66699 30 -14
c3.33301 -5.33301 5 -11 5 -17c0 -8 -4 -17.333 -12 -28l-154 -218h-38z" />
    <glyph glyph-name="lcaron" unicode="&#x13e;" horiz-adv-x="448" 
d="M98 1475c32 0 48 -22.667 48 -68v-1322l2 -61l-37 -24h-24l-37 37v1377c0 40.667 16 61 48 61zM330 1469c8.66699 6 17.667 9 27 9c12.667 0 22.667 -4.66699 30 -14c3.33301 -5.33301 5 -11 5 -17c0 -8 -4 -17.333 -12 -28l-154 -218h-38z" />
    <glyph glyph-name="Lslash" unicode="&#x141;" horiz-adv-x="437" 
d="M126 699v-614l1 -24h244c18 0 27 -10.333 27 -31c0 -20 -9 -30 -27 -30h-304l-1 1c-26 3.33301 -39 13 -39 29c0 4.66699 1 8.66699 3 12v1372c0 40.667 16 61 48 61s48 -22.667 48 -68v-634l148 104c3.33301 2 11 -5.33301 23 -22c11.333 -16.667 15.333 -26 12 -28z
" />
    <glyph glyph-name="lslash" unicode="&#x142;" horiz-adv-x="326" 
d="M90 822l-0.000976562 592c0 40.667 16 61 48 61s48 -22.667 48 -68v-518l68 48c3.33301 2 11 -5.33301 23 -22c8.66699 -12.667 13 -21 13 -25c0 -1.33301 -0.333008 -2.33301 -1 -3l-103 -73v-729l2 -61l-37 -24h-24l-37 37v710l-31 -22
c-7.33301 -4.66699 -16.666 1.33301 -27.999 18c-6.66699 10 -10 18 -10 24c0 4 1.33301 7 4 9z" />
    <glyph glyph-name="Nacute" unicode="&#x143;" horiz-adv-x="600" 
d="M180 1383c-33.333 -30 -50 -81 -50 -153v-1197c0 -22 -8.66699 -33 -26 -33h-70v1214l-4 118c58 46.667 108 77 150 91c18 6 34.333 9 49 9c110.667 0 177.334 -213.333 200.001 -640c10.667 -168 38 -427.333 82 -778v-2c0 -8 -4.33301 -12 -13 -12h-83
c-32 -0 -60.667 331.333 -86 994c-18.667 259.333 -68.334 389 -149.001 389zM305 1838c8.66699 6 17.667 9 27 9c12.667 0 22.667 -4.66699 30 -14c3.33301 -5.33301 5 -11 5 -17c0 -8 -4 -17.333 -12 -28l-154 -218h-38z" />
    <glyph glyph-name="nacute" unicode="&#x144;" horiz-adv-x="600" 
d="M180 1020c-33.333 -22 -50 -59.667 -50 -113v-883c0 -16 -8.66699 -24 -26 -24h-70v895l-4 87c58 34.667 108 57 150 67c18 4.66699 34.333 7 49 7c110.667 0 177.334 -157.333 200.001 -472c10.667 -124 38 -315.333 82 -574v-1c0 -6 -4.33301 -9 -13 -9h-83
c-32 -0 -60.667 244.333 -86 733c-18.667 191.333 -68.334 287 -149.001 287zM335 1466c8.66699 6 17.667 9 27 9c12.667 0 22.667 -4.66699 30 -14c3.33301 -5.33301 5 -11 5 -17c0 -8 -4 -17.333 -12 -28l-154 -218h-38z" />
    <glyph glyph-name="Ncaron" unicode="&#x147;" horiz-adv-x="600" 
d="M180 1383c-33.333 -30 -50 -81 -50 -153v-1197c0 -22 -8.66699 -33 -26 -33h-70v1214l-4 118c58 46.667 108 77 150 91c18 6 34.333 9 49 9c110.667 0 177.334 -213.333 200.001 -640c10.667 -168 38 -427.333 82 -778v-2c0 -8 -4.33301 -12 -13 -12h-83
c-32 -0 -60.667 331.333 -86 994c-18.667 259.333 -68.334 389 -149.001 389zM191 1603l125 236c8.66699 6 17.667 9 27 9c12.667 0 22.667 -4.66699 30 -14c3.33301 -5.33301 5 -11 5 -17c0 -8 -4 -17.333 -12 -28l-154 -218h-42l-154 218c-8 10.667 -12 20 -12 28
c0 6 1.66699 11.667 5 17c7.33301 9.33301 17.333 14 30 14c9.33301 0 18.333 -3 27 -9z" />
    <glyph glyph-name="ncaron" unicode="&#x148;" horiz-adv-x="600" 
d="M180 1020c-33.333 -22 -50 -59.667 -50 -113v-883c0 -16 -8.66699 -24 -26 -24h-70v895l-4 87c58 34.667 108 57 150 67c18 4.66699 34.333 7 49 7c110.667 0 177.334 -157.333 200.001 -472c10.667 -124 38 -315.333 82 -574v-1c0 -6 -4.33301 -9 -13 -9h-83
c-32 -0 -60.667 244.333 -86 733c-18.667 191.333 -68.334 287 -149.001 287zM187 1230l125 236c8.66699 6 17.667 9 27 9c12.667 0 22.667 -4.66699 30 -14c3.33301 -5.33301 5 -11 5 -17c0 -8 -4 -17.333 -12 -28l-154 -218h-42l-154 218c-8 10.667 -12 20 -12 28
c0 6 1.66699 11.667 5 17c7.33301 9.33301 17.333 14 30 14c9.33301 0 18.333 -3 27 -9z" />
    <glyph glyph-name="Ohungarumlaut" unicode="&#x150;" horiz-adv-x="652" 
d="M306 1432c181.333 -50.667 272 -263.999 272 -639.999v-13c0 -452.667 -91 -716.334 -273 -791.001h-11c-150.667 0 -238.667 201 -264 603v176c0 379.333 83.667 601 251 665c4.66699 0.666992 9 1 13 1s8 -0.333008 12 -1zM138 679.001
c0 -348 43.665 -565.667 130.998 -653c6.66699 -3.33301 23.334 -3.33301 50.001 0c82.667 13.333 133 264.333 151 753c-25.333 398 -75.666 604 -150.999 618h-25c-91.333 6.66699 -143.333 -195 -156 -605v-113zM293.998 1839c8.66699 6 17.667 9 27 9
c12.667 0 22.667 -4.66699 30 -14c3.33301 -5.33301 5 -11 5 -17c0 -8 -4 -17.333 -12 -28l-154 -218h-38zM493.998 1839c8.66699 6 17.667 9 27 9c12.667 0 22.667 -4.66699 30 -14c3.33301 -5.33301 5 -11 5 -17c0 -8 -4 -17.333 -12 -28l-154 -218h-38z" />
    <glyph glyph-name="ohungarumlaut" unicode="&#x151;" horiz-adv-x="624" 
d="M266 1045c133.333 0 206.667 -170 220 -510v-50c0 -294.667 -77.333 -464.667 -232 -510h-13c-122.667 0 -193 141 -211 423v174c0 258.667 66.333 412 199 460zM138.001 510c12.667 -332 55.333 -498 128 -498h13c49.333 0 82.333 161.667 99 485v25
c-16.667 324 -54 486 -112 486h-37c-44 -8 -74.333 -174 -91 -498zM264 1469c8.66699 6 17.667 9 27 9c12.667 0 22.667 -4.66699 30 -14c3.33301 -5.33301 5 -11 5 -17c0 -8 -4 -17.333 -12 -28l-154 -218h-38zM464 1469c8.66699 6 17.667 9 27 9
c12.667 0 22.667 -4.66699 30 -14c3.33301 -5.33301 5 -11 5 -17c0 -8 -4 -17.333 -12 -28l-154 -218h-38z" />
    <glyph glyph-name="OE" unicode="&#x152;" horiz-adv-x="2048" 
 />
    <glyph glyph-name="oe" unicode="&#x153;" horiz-adv-x="1933" 
 />
    <glyph glyph-name="Racute" unicode="&#x154;" horiz-adv-x="606" 
d="M229 1426c120.667 0 193.333 -78.667 218 -236c0 -134 -72.667 -266.667 -218 -398v-25c135.333 0 214 -190.667 236 -572l60 -187l-12 -8h-25c-58 0 -90.333 31.667 -97 95l-87 523c-50.667 74.667 -100.667 112 -150 112h-28v-719l-15 -11h-81v1314
c0 40 66.333 77.333 199 112zM125.999 1048v-249h28c116.667 92 175 225 175 399v49c0 70.667 -25 119 -75 145h-62c-44 0 -66 -114.667 -66 -344zM314.999 1839c8.66699 6 17.667 9 27 9c12.667 0 22.667 -4.66699 30 -14c3.33301 -5.33301 5 -11 5 -17
c0 -8 -4 -17.333 -12 -28l-154 -218h-38z" />
    <glyph glyph-name="racute" unicode="&#x155;" horiz-adv-x="355" 
d="M291 1055c18 0 27 -3.66797 27 -11.001c-128 -63.333 -192 -141.666 -192 -234.999v-734c0 -42 -15.333 -67 -46 -75c-33.333 8 -50 33 -50 75v758c0 68 87 142 261 222zM220 1469c8.66699 6 17.667 9 27 9c12.667 0 22.667 -4.66699 30 -14
c3.33301 -5.33301 5 -11 5 -17c0 -8 -4 -17.333 -12 -28l-154 -218h-38z" />
    <glyph glyph-name="Rcaron" unicode="&#x158;" horiz-adv-x="606" 
d="M229 1426c120.667 0 193.333 -78.667 218 -236c0 -134 -72.667 -266.667 -218 -398v-25c135.333 0 214 -190.667 236 -572l60 -187l-12 -8h-25c-58 0 -90.333 31.667 -97 95l-87 523c-50.667 74.667 -100.667 112 -150 112h-28v-719l-15 -11h-81v1314
c0 40 66.333 77.333 199 112zM125.999 1048v-249h28c116.667 92 175 225 175 399v49c0 70.667 -25 119 -75 145h-62c-44 0 -66 -114.667 -66 -344zM181.999 1603l125 236c8.66699 6 17.667 9 27 9c12.667 0 22.667 -4.66699 30 -14c3.33301 -5.33301 5 -11 5 -17
c0 -8 -4 -17.333 -12 -28l-154 -218h-42l-154 218c-8 10.667 -12 20 -12 28c0 6 1.66699 11.667 5 17c7.33301 9.33301 17.333 14 30 14c9.33301 0 18.333 -3 27 -9z" />
    <glyph glyph-name="rcaron" unicode="&#x159;" horiz-adv-x="355" 
d="M291 1055c18 0 27 -3.66797 27 -11.001c-128 -63.333 -192 -141.666 -192 -234.999v-734c0 -42 -15.333 -67 -46 -75c-33.333 8 -50 33 -50 75v758c0 68 87 142 261 222zM155 1233l125 236c8.66699 6 17.667 9 27 9c12.667 0 22.667 -4.66699 30 -14
c3.33301 -5.33301 5 -11 5 -17c0 -8 -4 -17.333 -12 -28l-154 -218h-42l-154 218c-8 10.667 -12 20 -12 28c0 6 1.66699 11.667 5 17c7.33301 9.33301 17.333 14 30 14c9.33301 0 18.333 -3 27 -9z" />
    <glyph glyph-name="Sacute" unicode="&#x15a;" horiz-adv-x="402" 
d="M254 1462l24.999 -0.00195312l25 -25c-126 -40 -192.333 -129.667 -199 -269v-50c0 -75.333 54.667 -230.333 164 -465c24.667 -75.333 37 -150.666 37 -225.999c-52 -284.667 -119 -427 -201 -427h-12l-25 25c83.333 152.667 125 274 125 364v88
c0 68.667 -27.167 169.334 -81.5 302.001s-81.5 219 -81.5 259v67c6.66699 154.667 81.334 273.667 224.001 357zM268.999 1838c8.66699 6 17.667 9 27 9c12.667 0 22.667 -4.66699 30 -14c3.33301 -5.33301 5 -11 5 -17c0 -8 -4 -17.333 -12 -28l-154 -218h-38z" />
    <glyph glyph-name="sacute" unicode="&#x15b;" horiz-adv-x="309" 
d="M156 1042h24.999c-58.667 -60 -88 -110 -88 -150v-63l125 -352l26 -113v-50c-27.333 -209.333 -73.666 -314 -138.999 -314h-12l-38 13v25c67.333 96 101 200.667 101 314c0 48 -37.667 182 -113 402l-13 75c0 85.333 42 156.333 126 213zM212.999 1469
c8.66699 6 17.667 9 27 9c12.667 0 22.667 -4.66699 30 -14c3.33301 -5.33301 5 -11 5 -17c0 -8 -4 -17.333 -12 -28l-154 -218h-38z" />
    <glyph glyph-name="Scedilla" unicode="&#x15e;" horiz-adv-x="402" 
d="M75 0l-21.001 -1.00293c92.667 170 139 300 139 390v88c0 68.667 -27.167 169.334 -81.5 302.001s-81.5 219 -81.5 259v67c6.66699 154.667 81.334 273.667 224.001 357h25l25 -25c-126 -40 -192.333 -129.667 -199 -269v-50c0 -75.333 54.667 -230.333 164 -465
c24.667 -75.333 37 -150.666 37 -225.999c-44 -239.333 -98.333 -378 -163 -416c26.667 -30.667 40 -68.667 40 -114c0 -75.333 -29.333 -131.666 -88 -168.999h-38l-35 26v12c67.333 36.667 101 74.334 101 113.001c0 55.333 -16 95.666 -48 120.999z" />
    <glyph glyph-name="scedilla" unicode="&#x15f;" horiz-adv-x="309" 
d="M57 0l-2 -0.000976562v38c67.333 96 101 200.667 101 314c0 48 -37.667 182 -113 402l-13 75c0 85.333 42 156.333 126 213h25c-58.667 -60 -88 -110 -88 -150v-63l125 -352l26 -113v-50c-24 -182 -62.333 -285 -115 -309c24.667 -27.333 37 -63.333 37 -108
c0 -75.333 -29.333 -131.666 -88 -168.999h-38l-35 26v12c67.333 36.667 101 74.334 101 113.001c0 55.333 -16.333 95.666 -49 120.999z" />
    <glyph glyph-name="Scaron" unicode="&#x160;" horiz-adv-x="402" 
d="M254 1462l24.999 -0.00195312l25 -25c-126 -40 -192.333 -129.667 -199 -269v-50c0 -75.333 54.667 -230.333 164 -465c24.667 -75.333 37 -150.666 37 -225.999c-52 -284.667 -119 -427 -201 -427h-12l-25 25c83.333 152.667 125 274 125 364v88
c0 68.667 -27.167 169.334 -81.5 302.001s-81.5 219 -81.5 259v67c6.66699 154.667 81.334 273.667 224.001 357zM217.999 1607l125 236c8.66699 6 17.667 9 27 9c12.667 0 22.667 -4.66699 30 -14c3.33301 -5.33301 5 -11 5 -17c0 -8 -4 -17.333 -12 -28l-154 -218h-42
l-154 218c-8 10.667 -12 20 -12 28c0 6 1.66699 11.667 5 17c7.33301 9.33301 17.333 14 30 14c9.33301 0 18.333 -3 27 -9z" />
    <glyph glyph-name="scaron" unicode="&#x161;" horiz-adv-x="309" 
d="M156 1042h24.999c-58.667 -60 -88 -110 -88 -150v-63l125 -352l26 -113v-50c-27.333 -209.333 -73.666 -314 -138.999 -314h-12l-38 13v25c67.333 96 101 200.667 101 314c0 48 -37.667 182 -113 402l-13 75c0 85.333 42 156.333 126 213zM130.999 1231l125 236
c8.66699 6 17.667 9 27 9c12.667 0 22.667 -4.66699 30 -14c3.33301 -5.33301 5 -11 5 -17c0 -8 -4 -17.333 -12 -28l-154 -218h-42l-154 218c-8 10.667 -12 20 -12 28c0 6 1.66699 11.667 5 17c7.33301 9.33301 17.333 14 30 14c9.33301 0 18.333 -3 27 -9z" />
    <glyph glyph-name="Tcommaaccent" unicode="&#x162;" 
d="M192 8c-6.66699 6 -10.667 15.667 -12 29v1384h-84c-44 0 -66 10 -66 30c0 20.667 24.333 31 73 31h294c19.333 0 29 -10.333 29 -31c0 -20 -9.66699 -30 -29 -30h-122c0.666992 -4.66699 1 -9.33398 1 -14.001v-1322l2 -61c0 -8 -3.33301 -14 -10 -18
c21.333 -22 32 -55.667 32 -101c0 -75.333 -29.333 -131.666 -88 -168.999h-38l-35 26v12c67.333 36.667 101 74.334 101 113.001c0 55.333 -16.333 95.666 -49 120.999h1z" />
    <glyph glyph-name="tcommaaccent" unicode="&#x163;" horiz-adv-x="378" 
d="M216 -11l-4 -1.00098c-58.667 0 -88 92 -88 276v719h-94v61h94v150c0 31.333 12.667 56.333 38 75l57 -12v-213h101v-61h-101v-716c0 -126.667 23.667 -215.334 71 -266.001l-10 -1c22 -22.667 33 -57 33 -103c0 -75.333 -29.333 -131.666 -88 -168.999h-38l-35 26v12
c67.333 36.667 101 74.334 101 113.001c0 48 -12.333 84.667 -37 110z" />
    <glyph glyph-name="Tcaron" unicode="&#x164;" 
d="M275 1421c0.666992 -4.66699 1 -9.33301 1 -14v-1322l2 -61l-37 -24h-24l-37 37v1384h-84c-44 0 -66 10 -66 30c0 20.667 24.333 31 73 31h294c19.333 0 29 -10.333 29 -31c0 -20 -9.66699 -30 -29 -30h-122zM244 1608l125 236c8.66699 6 17.667 9 27 9
c12.667 0 22.667 -4.66699 30 -14c3.33301 -5.33301 5 -11 5 -17c0 -8 -4 -17.333 -12 -28l-154 -218h-42l-154 218c-8 10.667 -12 20 -12 28c0 6 1.66699 11.667 5 17c7.33301 9.33301 17.333 14 30 14c9.33301 0 18.333 -3 27 -9z" />
    <glyph glyph-name="tcaron" unicode="&#x165;" horiz-adv-x="250" 
d="M91 1044v150.001c0 31.333 12.667 56.333 38 75l57 -12v-213h101v-61h-101v-716c0 -126.667 23.667 -215.334 71 -266.001l-78 -13c-58.667 0 -88 92 -88 276v719h-94v61h94z" />
    <glyph glyph-name="Uring" unicode="&#x16e;" horiz-adv-x="460" 
d="M78 1454c32 0 48 -14.667 48 -44v-1233c0 -34.667 8.66699 -68.667 26 -102s54.333 -50 111 -50c19.333 -0.666992 29 7.33301 29 24v1360c0 30 16 45 48 45s48 -14.667 48 -44v-1311c0 -74 -45.667 -111 -137 -111c-147.333 0 -221 135 -221 405v1017
c0 29.333 16 44 48 44zM175 1690c0 -33.333 13 -50 39 -50c30 0 45 15.667 45 47c0 35.333 -14 53 -42 53s-42 -16.667 -42 -50zM217 1774c48.667 0 73 -30 73 -90c0 -52 -26.333 -78 -79 -78c-44.667 0 -67 28 -67 84s24.333 84 73 84z" />
    <glyph glyph-name="uring" unicode="&#x16f;" horiz-adv-x="507" 
d="M78 1044c32 0 48 -14.667 48 -44v-823c0 -34.667 8.66699 -68.667 26 -102s54.333 -50 111 -50c19.333 -0.666992 29 7.33301 29 24v950c0 30 16 45 48 45s48 -14.667 48 -44v-901c0 -74 -45.667 -111 -137 -111c-147.333 0 -221 135 -221 405v607c0 29.333 16 44 48 44z
M172 1296c0 -33.333 13 -50 39 -50c30 0 45 15.667 45 47c0 35.333 -14 53 -42 53s-42 -16.667 -42 -50zM214 1380c48.667 0 73 -30 73 -90c0 -52 -26.333 -78 -79 -78c-44.667 0 -67 28 -67 84s24.333 84 73 84z" />
    <glyph glyph-name="Uhungarumlaut" unicode="&#x170;" horiz-adv-x="460" 
d="M78 1454c32 0 48 -14.667 48 -44v-1233c0 -34.667 8.66699 -68.667 26 -102s54.333 -50 111 -50c19.333 -0.666992 29 7.33301 29 24v1360c0 30 16 45 48 45s48 -14.667 48 -44v-1311c0 -74 -45.667 -111 -137 -111c-147.333 0 -221 135 -221 405v1017
c0 29.333 16 44 48 44zM234 1843c8.66699 6 17.667 9 27 9c12.667 0 22.667 -4.66699 30 -14c3.33301 -5.33301 5 -11 5 -17c0 -8 -4 -17.333 -12 -28l-154 -218h-38zM434 1843c8.66699 6 17.667 9 27 9c12.667 0 22.667 -4.66699 30 -14c3.33301 -5.33301 5 -11 5 -17
c0 -8 -4 -17.333 -12 -28l-154 -218h-38z" />
    <glyph glyph-name="uhungarumlaut" unicode="&#x171;" horiz-adv-x="507" 
d="M78 1044c32 0 48 -14.667 48 -44v-823c0 -34.667 8.66699 -68.667 26 -102s54.333 -50 111 -50c19.333 -0.666992 29 7.33301 29 24v950c0 30 16 45 48 45s48 -14.667 48 -44v-901c0 -74 -45.667 -111 -137 -111c-147.333 0 -221 135 -221 405v607c0 29.333 16 44 48 44z
M240 1467c8.66699 6 17.667 9 27 9c12.667 0 22.667 -4.66699 30 -14c3.33301 -5.33301 5 -11 5 -17c0 -8 -4 -17.333 -12 -28l-154 -218h-38zM440 1467c8.66699 6 17.667 9 27 9c12.667 0 22.667 -4.66699 30 -14c3.33301 -5.33301 5 -11 5 -17c0 -8 -4 -17.333 -12 -28
l-154 -218h-38z" />
    <glyph glyph-name="Ydieresis" unicode="&#x178;" horiz-adv-x="531" 
d="M214 485c-59.333 75.333 -120.668 381.667 -184.001 919l38 25c30.667 -8 54.667 -99.667 72 -275c10.667 -106 49.334 -288.667 116.001 -548c10 -30.667 20.333 -30.667 31 0l150 810h13l12 -12h13c-59.333 -464.667 -114.333 -755 -165 -871v-458
c0 -50 -11.667 -75 -35 -75h-24c-24.667 0 -37 25 -37 75v410zM185.998 1712c34.667 0 52 -21.333 52 -64c-6 -37.333 -24.667 -56 -56 -56c-20.667 0 -36.667 20 -48 60c6 40 23.333 60 52 60zM395.998 1712c34.667 0 52 -21.333 52 -64c-6 -37.333 -24.667 -56 -56 -56
c-20.667 0 -36.667 20 -48 60c6 40 23.333 60 52 60z" />
    <glyph glyph-name="Zacute" unicode="&#x179;" horiz-adv-x="448" 
d="M102 1432l228 0.000976562l48 -33c0 -84 -64 -400.333 -192 -949l-36 -389h204l24 -22v-39h-324l-24 33v16c0 243.333 80 637.666 240 1183l22 139h-202l-24 12v16c0 22 12 33 36 33zM324 1843c8.66699 6 17.667 9 27 9c12.667 0 22.667 -4.66699 30 -14
c3.33301 -5.33301 5 -11 5 -17c0 -8 -4 -17.333 -12 -28l-154 -218h-38z" />
    <glyph glyph-name="zacute" unicode="&#x17a;" horiz-adv-x="454" 
d="M102 1044l228 0.000976562l48 -24c0 -61.333 -64 -292 -192 -692l-36 -267h204l24 -25v-36h-324l-24 24v12c0 177.333 80 464.666 240 861.999l22 85h-202l-24 25v12c0 16 12 24 36 24zM328 1469c8.66699 6 17.667 9 27 9c12.667 0 22.667 -4.66699 30 -14
c3.33301 -5.33301 5 -11 5 -17c0 -8 -4 -17.333 -12 -28l-154 -218h-38z" />
    <glyph glyph-name="Zdotaccent" unicode="&#x17b;" horiz-adv-x="448" 
d="M102 1432l228 0.000976562l48 -33c0 -84 -64 -400.333 -192 -949l-36 -389h204l24 -22v-39h-324l-24 33v16c0 243.333 80 637.666 240 1183l22 139h-202l-24 12v16c0 22 12 33 36 33zM218 1731c34.667 0 52 -21.333 52 -64c-6 -37.333 -24.667 -56 -56 -56
c-20.667 0 -36.667 20 -48 60c6 40 23.333 60 52 60z" />
    <glyph glyph-name="zdotaccent" unicode="&#x17c;" horiz-adv-x="454" 
d="M102 1044l228 0.000976562l48 -24c0 -61.333 -64 -292 -192 -692l-36 -267h204l24 -25v-36h-324l-24 24v12c0 177.333 80 464.666 240 861.999l22 85h-202l-24 25v12c0 16 12 24 36 24zM216 1326c34.667 0 52 -21.333 52 -64c-6 -37.333 -24.667 -56 -56 -56
c-20.667 0 -36.667 20 -48 60c6 40 23.333 60 52 60z" />
    <glyph glyph-name="Zcaron" unicode="&#x17d;" horiz-adv-x="448" 
d="M102 1432l228 0.000976562l48 -33c0 -84 -64 -400.333 -192 -949l-36 -389h204l24 -22v-39h-324l-24 33v16c0 243.333 80 637.666 240 1183l22 139h-202l-24 12v16c0 22 12 33 36 33zM241 1602l125 236c8.66699 6 17.667 9 27 9c12.667 0 22.667 -4.66699 30 -14
c3.33301 -5.33301 5 -11 5 -17c0 -8 -4 -17.333 -12 -28l-154 -218h-42l-154 218c-8 10.667 -12 20 -12 28c0 6 1.66699 11.667 5 17c7.33301 9.33301 17.333 14 30 14c9.33301 0 18.333 -3 27 -9z" />
    <glyph glyph-name="zcaron" unicode="&#x17e;" horiz-adv-x="454" 
d="M102 1044l228 0.000976562l48 -24c0 -61.333 -64 -292 -192 -692l-36 -267h204l24 -25v-36h-324l-24 24v12c0 177.333 80 464.666 240 861.999l22 85h-202l-24 25v12c0 16 12 24 36 24zM243 1231l125 236c8.66699 6 17.667 9 27 9c12.667 0 22.667 -4.66699 30 -14
c3.33301 -5.33301 5 -11 5 -17c0 -8 -4 -17.333 -12 -28l-154 -218h-42l-154 218c-8 10.667 -12 20 -12 28c0 6 1.66699 11.667 5 17c7.33301 9.33301 17.333 14 30 14c9.33301 0 18.333 -3 27 -9z" />
    <glyph glyph-name="circumflex" unicode="&#x2c6;" horiz-adv-x="606" 
d="M210 1210c-8.66699 -6 -17.667 -9 -27 -9c-12.667 0 -22.667 4.66699 -30 14c-3.33301 5.33301 -5 11 -5 17c0 8 4 17.333 12 28l154 218h42l154 -218c8 -10.667 12 -20 12 -28c0 -6 -1.66699 -11.667 -5 -17c-7.33301 -9.33301 -17.333 -14 -30 -14
c-9.33301 0 -18.333 3 -27 9l-125 236z" />
    <glyph glyph-name="caron" unicode="&#x2c7;" horiz-adv-x="682" 
d="M187 1233l125 236c8.66699 6 17.667 9 27 9c12.667 0 22.667 -4.66699 30 -14c3.33301 -5.33301 5 -11 5 -17c0 -8 -4 -17.333 -12 -28l-154 -218h-42l-154 218c-8 10.667 -12 20 -12 28c0 6 1.66699 11.667 5 17c7.33301 9.33301 17.333 14 30 14
c9.33301 0 18.333 -3 27 -9z" />
    <glyph glyph-name="uni02C9" unicode="&#x2c9;" horiz-adv-x="303" 
d="M144 1452c-8 -34.667 -24.999 -56 -50.999 -64c3.33301 12.667 7.66602 23.667 12.999 33c4 4 7.66699 9.33301 11 16c8 8 17 13 27 15z" />
    <glyph glyph-name="breve" unicode="&#x2d8;" horiz-adv-x="303" 
d="M116 1488c10.667 -45.333 25 -68 43 -68c28 0 46 22.667 54 68h21c-10 -69.333 -35.667 -104 -77 -104c-32 0 -53.333 34.667 -64 104h23z" />
    <glyph glyph-name="dotaccent" unicode="&#x2d9;" horiz-adv-x="198" 
d="M82 1384c34.667 0 52 -21.333 52 -64c-6 -37.333 -24.667 -56 -56 -56c-20.667 0 -36.667 20 -48 60c6 40 23.333 60 52 60z" />
    <glyph glyph-name="ring" unicode="&#x2da;" horiz-adv-x="198" 
d="M41 1328c0 -33.333 13 -50 39 -50c30 0 45 15.667 45 47c0 35.333 -14 53 -42 53s-42 -16.667 -42 -50zM83 1412c48.667 0 73 -30 73 -90c0 -52 -26.333 -78 -79 -78c-44.667 0 -67 28 -67 84s24.333 84 73 84z" />
    <glyph glyph-name="ogonek" unicode="&#x2db;" horiz-adv-x="938" 
d="M365 0c-32.667 -25.333 -49 -65.665 -49 -120.998c0 -38.667 33.667 -76.334 101 -113.001v-12l-35 -26h-38c-58.667 37.333 -88 93.666 -88 168.999c0 46 11.333 80.333 34 103h75z" />
    <glyph glyph-name="tilde" unicode="&#x2dc;" horiz-adv-x="402" 
d="M219 1394c-4.66699 -8 -14.668 -17.667 -30.001 -29c-6 -4 -12.333 -7 -19 -9c-12 -4.66699 -25 -7 -39 -7c-48 0 -80 40 -96 120h35c16 -52.667 37.333 -79 64 -79c23.333 0 41.333 8 54 24c7.33301 6.66699 13.333 15.667 18 27c10.667 13.333 23.667 22 39 26
c7.33301 1.33301 14 2 20 2c62 0 100.333 -40 115 -120h-31c-12 52 -39 78 -81 78c-18 0 -33 -8.66699 -45 -26c-1.33301 -2.66699 -2.66602 -5 -3.99902 -7z" />
    <glyph glyph-name="hungarumlaut" unicode="&#x2dd;" horiz-adv-x="606" 
d="M250 1469c8.66699 6 17.667 9 27 9c12.667 0 22.667 -4.66699 30 -14c3.33301 -5.33301 5 -11 5 -17c0 -8 -4 -17.333 -12 -28l-154 -218h-38zM450 1469c8.66699 6 17.667 9 27 9c12.667 0 22.667 -4.66699 30 -14c3.33301 -5.33301 5 -11 5 -17c0 -8 -4 -17.333 -12 -28
l-154 -218h-38z" />
    <glyph glyph-name="endash" unicode="&#x2013;" horiz-adv-x="705" 
d="M128 723c0 20.667 7.33301 31 22 31h449c6.66699 0 10 -10.333 10 -31c0 -20 -3.33301 -30 -10 -30h-450c-14 0 -21 10 -21 30z" />
    <glyph glyph-name="emdash" unicode="&#x2014;" horiz-adv-x="1002" 
d="M128 723c0 20.667 11.333 31 34 31h680c10 0 15 -10.333 15 -31c0 -20 -5 -30 -15 -30h-682c-21.333 0 -32 10 -32 30z" />
    <glyph glyph-name="quoteleft" unicode="&#x2018;" horiz-adv-x="402" 
d="M302 1201h-38l-154 218c-8 10.667 -12 20 -12 28c0 6 1.66699 11.667 5 17c7.33301 9.33301 17.333 14 30 14c9.33301 0 18.333 -3 27 -9z" />
    <glyph glyph-name="quoteright" unicode="&#x2019;" horiz-adv-x="402" 
d="M240 1469c8.66699 6 17.667 9 27 9c12.667 0 22.667 -4.66699 30 -14c3.33301 -5.33301 5 -11 5 -17c0 -8 -4 -17.333 -12 -28l-154 -218h-38z" />
    <glyph glyph-name="quotesinglbase" unicode="&#x201a;" horiz-adv-x="439" 
d="M226 54c8.66699 6 17.667 9 27 9c12.667 0 22.667 -4.66699 30 -14c3.33301 -5.33301 5 -11 5 -17c0 -8 -4 -17.333 -12 -28l-154 -218h-38z" />
    <glyph glyph-name="quotedblleft" unicode="&#x201c;" horiz-adv-x="600" 
d="M492 1201h-38l-154 218c-8 10.667 -12 20 -12 28c0 6 1.66699 11.667 5 17c7.33301 9.33301 17.333 14 30 14c9.33301 0 18.333 -3 27 -9zM302 1201h-38l-154 218c-8 10.667 -12 20 -12 28c0 6 1.66699 11.667 5 17c7.33301 9.33301 17.333 14 30 14
c9.33301 0 18.333 -3 27 -9z" />
    <glyph glyph-name="quotedblright" unicode="&#x201d;" horiz-adv-x="600" 
d="M240 1469c8.66699 6 17.667 9 27 9c12.667 0 22.667 -4.66699 30 -14c3.33301 -5.33301 5 -11 5 -17c0 -8 -4 -17.333 -12 -28l-154 -218h-38zM430 1469c8.66699 6 17.667 9 27 9c12.667 0 22.667 -4.66699 30 -14c3.33301 -5.33301 5 -11 5 -17c0 -8 -4 -17.333 -12 -28
l-154 -218h-38z" />
    <glyph glyph-name="quotedblbase" unicode="&#x201e;" horiz-adv-x="600" 
d="M226 54c8.66699 6 17.667 9 27 9c12.667 0 22.667 -4.66699 30 -14c3.33301 -5.33301 5 -11 5 -17c0 -8 -4 -17.333 -12 -28l-154 -218h-38zM406 54c8.66699 6 17.667 9 27 9c12.667 0 22.667 -4.66699 30 -14c3.33301 -5.33301 5 -11 5 -17c0 -8 -4 -17.333 -12 -28
l-154 -218h-38z" />
    <glyph glyph-name="dagger" unicode="&#x2020;" 
 />
    <glyph glyph-name="daggerdbl" unicode="&#x2021;" horiz-adv-x="1139" 
 />
    <glyph glyph-name="bullet" unicode="&#x2022;" horiz-adv-x="717" 
 />
    <glyph glyph-name="ellipsis" unicode="&#x2026;" horiz-adv-x="2048" 
 />
    <glyph glyph-name="perthousand" unicode="&#x2030;" horiz-adv-x="2048" 
 />
    <glyph glyph-name="guilsinglleft" unicode="&#x2039;" horiz-adv-x="682" 
 />
    <glyph glyph-name="guilsinglright" unicode="&#x203a;" horiz-adv-x="682" 
 />
    <glyph glyph-name="fraction" unicode="&#x2044;" horiz-adv-x="342" 
 />
    <glyph glyph-name="fraction" unicode="&#x2215;" horiz-adv-x="342" 
 />
    <glyph glyph-name="Euro" unicode="&#x20ac;" horiz-adv-x="1139" 
 />
    <glyph glyph-name="trademark" unicode="&#x2122;" horiz-adv-x="798" 
d="M421 1564h12c24 -16 36 -30 36 -42h6c21.333 28 41.333 42 60 42h12c68 0 106 -136 114 -408l24 -108l-6 -6h-30c-28 0 -42 76 -42 228c-12.667 173.333 -34.667 265.333 -66 276c-28 -6.66699 -42 -28.667 -42 -66v-426l-12 -12h-24l-12 12v414
c0 31.333 -10 55.333 -30 72h-6c-28 0 -42 -20 -42 -60v-426l-12 -12h-24l-12 12v468c0 15.333 32 29.333 96 42zM187 1564v74.999c0 16 6.33301 28.667 19 38l29 -6v-107h50v-30h-50v-358c0 -63.333 11.667 -107.666 35 -132.999l-39 -7c-29.333 0 -44 46 -44 138v360h-47
v30h47z" />
    <glyph glyph-name="minus" unicode="&#x2212;" horiz-adv-x="1196" 
 />
    <glyph glyph-name="uniF001" unicode="&#xf001;" horiz-adv-x="1024" 
 />
    <glyph glyph-name="uniF001" unicode="&#xfb01;" horiz-adv-x="1024" 
 />
    <glyph glyph-name="uniF002" unicode="&#xf002;" horiz-adv-x="1024" 
 />
    <glyph glyph-name="uniF002" unicode="&#xfb02;" horiz-adv-x="1024" 
 />
    <glyph glyph-name=".null" horiz-adv-x="0" 
 />
    <glyph glyph-name="nonmarkingreturn" horiz-adv-x="569" 
 />
  </font>
</defs>
</svg>
